<?xml version="1.0" standalone="no"?>
<!DOCTYPE svg PUBLIC "-//W3C//DTD SVG 1.1//EN" "http://www.w3.org/Graphics/SVG/1.1/DTD/svg11.dtd" >
<svg xmlns="http://www.w3.org/2000/svg">
<metadata>
This is a custom SVG webfont generated by Font Squirrel.
Copyright   : 41 Copyright 1992 Software Complement                                                                
</metadata>
<defs>
<font id="RockoFLFRegular" horiz-adv-x="1671" >
<font-face units-per-em="2048" ascent="1638" descent="-410" />
<missing-glyph horiz-adv-x="538" />
<glyph unicode=" "  horiz-adv-x="538" />
<glyph unicode="&#x09;" horiz-adv-x="538" />
<glyph unicode="&#xa0;" horiz-adv-x="538" />
<glyph unicode="!" horiz-adv-x="485" d="M94 147q0 -59 44 -103t104 -44q61 0 105 44t44 103q0 61 -44 105.5t-105 44.5q-59 0 -103.5 -44.5t-44.5 -105.5zM121 512q0 -51 36 -86t85 -35q51 0 85.5 35t34.5 86v983q0 51 -34.5 86t-85.5 35q-49 0 -85 -35t-36 -86v-983z" />
<glyph unicode="&#x22;" horiz-adv-x="585" d="M41 1559q0 -10 2 -19l41 -186q6 -27 21.5 -45.5t42 -18.5t42 18.5t21.5 45.5l41 186q2 8 2 19q0 18 -11.5 33.5t-26.5 27.5t-34.5 18.5t-34.5 6.5q-35 0 -70.5 -24.5t-35.5 -61.5zM332 1559q0 -10 2 -19l41 -186q6 -27 21.5 -45.5t42 -18.5t42 18.5t21.5 45.5l41 186 q2 8 2 19q0 18 -11.5 33.5t-26.5 27.5t-34.5 18.5t-34.5 6.5q-35 0 -70.5 -24.5t-35.5 -61.5z" />
<glyph unicode="#" horiz-adv-x="1077" d="M53 971q0 -35 23.5 -58.5t58.5 -23.5h162v-162q0 -35 22.5 -57.5t57.5 -22.5t58.5 22.5t23.5 57.5v162h162v-162q0 -35 22.5 -57.5t57 -22.5t58 22.5t23.5 57.5v162h162q33 0 56.5 23.5t23.5 58.5t-23.5 57.5t-56.5 22.5h-162v161h162q33 0 56.5 24t23.5 58 q0 33 -23.5 56.5t-56.5 23.5h-162v162q0 35 -23.5 57.5t-58 22.5t-57 -22.5t-22.5 -57.5v-162h-162v162q0 35 -23.5 57.5t-58.5 22.5t-57.5 -22.5t-22.5 -57.5v-162h-162q-35 0 -58.5 -23.5t-23.5 -56.5q0 -35 23.5 -58.5t58.5 -23.5h162v-161h-162q-35 0 -58.5 -22.5 t-23.5 -57.5zM459 1051v161h162v-161h-162z" />
<glyph unicode="$" horiz-adv-x="1114" d="M59 565q0 -27 21.5 -80t74 -106t139.5 -97t220 -53v-114q0 -20 13.5 -33.5t34 -13.5t33.5 13t13 34v112q88 2 170 23.5t144.5 65.5t99.5 113t37 167q0 92 -38 152.5t-100.5 100.5t-144.5 64.5t-168 42.5v304q37 -6 62.5 -16.5t46 -27t37 -41t32.5 -63.5q12 -29 35 -42 t49 -13q43 0 80 27.5t37 74.5q0 27 -24.5 72t-72.5 89t-119 78t-163 38v112q0 20 -13 33.5t-33.5 13.5t-34 -13t-13.5 -34v-108q-82 0 -158.5 -19.5t-137 -60.5t-97.5 -105.5t-37 -154.5q0 -88 36 -144.5t96 -93.5t137 -57.5t161 -36.5v-362q-104 16 -167.5 66t-98.5 136 q-12 33 -35 46.5t-49 13.5q-39 0 -72 -28t-33 -75zM289 1124q0 39 19.5 66t51 42t71.5 22.5t83 9.5v-287q-45 10 -86 23.5t-71.5 30t-49 39.5t-18.5 54zM608 403v345q43 -10 82 -23.5t70 -32t49 -46.5t18 -64q0 -82 -64.5 -129.5t-154.5 -49.5z" />
<glyph unicode="%" horiz-adv-x="1431" d="M41 1251.5q0 -192.5 76 -292t219 -99.5q145 0 221 99.5t76 292t-76 293t-221 100.5q-143 0 -219 -100.5t-76 -293zM195 1251.5q0 106.5 34.5 165t106.5 58.5t106.5 -58.5t34.5 -165t-34.5 -165t-106.5 -58.5t-106.5 58.5t-34.5 165zM197 12q0 -41 28.5 -67.5t67.5 -26.5 q27 0 50.5 13.5t35.5 37.5l833 1587q10 18 10.5 45t-10 46.5t-26 30t-31.5 15.5t-29 5q-27 0 -50 -13.5t-36 -37.5l-831 -1588q-12 -22 -12 -47zM797 364.5q0 -192.5 76.5 -292t220.5 -99.5q145 0 221 99.5t76 292t-76 293t-221 100.5q-143 0 -220 -100.5t-77 -293z M952 364.5q0 106.5 35 165t106.5 58.5t106.5 -58.5t35 -165t-35 -165t-106.5 -58.5t-106.5 58.5t-35 165z" />
<glyph unicode="&#x26;" horiz-adv-x="1290" d="M41 426q0 -104 36 -188t98.5 -142.5t150.5 -90.5t192 -32q72 0 133.5 16.5t113.5 43t96 61.5t83 72l109 -148q16 -23 40.5 -34t51.5 -11q47 0 75.5 31t28.5 78q0 41 -22 70l-156 206q29 59 49.5 128t28.5 151q1 10 1 18q0 53 -32 80q-37 31 -78 31q-37 0 -67.5 -23.5 t-36.5 -72.5q-4 -33 -5 -56.5t-11 -56.5l-240 317q53 33 105.5 74t93.5 91.5t66.5 109.5t25.5 129q0 84 -29 151.5t-79 115.5t-118.5 74t-148.5 26q-76 0 -143.5 -28t-118.5 -76t-81 -113.5t-30 -141.5q0 -61 16.5 -113.5t42 -98.5t54.5 -85l53 -71q-68 -41 -131 -88.5 t-111.5 -106.5t-77 -132t-28.5 -165zM248 426q0 115 66.5 190.5t187.5 147.5l317 -430q-18 -25 -46 -56.5t-65.5 -58t-86 -45t-103.5 -18.5q-53 0 -102 21.5t-86 58t-59.5 86t-22.5 104.5zM428 1290q0 80 48 123t116 43q27 0 56.5 -8t54 -26.5t41 -48.5t16.5 -70 q0 -92 -56.5 -164t-138.5 -113q-53 72 -95 137.5t-42 126.5z" />
<glyph unicode="'" horiz-adv-x="294" d="M41 1559q0 -10 2 -19l41 -186q6 -27 21.5 -45.5t42 -18.5t42 18.5t21.5 45.5l41 186q2 8 2 19q0 18 -11.5 33.5t-26.5 27.5t-34.5 18.5t-34.5 6.5q-35 0 -70.5 -24.5t-35.5 -61.5z" />
<glyph unicode="(" horiz-adv-x="649" d="M41 809q0 -141 25.5 -260t72.5 -225.5t117 -203.5t160 -194q35 -37 78 -37q51 0 91 41t40 90q0 37 -29 66q-141 135 -227 313.5t-86 409.5t86 408.5t227 314.5q29 29 29 65q0 25 -11.5 48.5t-30 42t-42 30t-47.5 11.5q-43 0 -78 -37q-90 -96 -160 -193.5t-118 -204 t-72.5 -226.5t-24.5 -259z" />
<glyph unicode=")" horiz-adv-x="647" d="M25 1599q0 -39 28 -67q141 -135 226.5 -313.5t85.5 -409.5t-86 -409.5t-226 -313.5q-29 -29 -28 -68q0 -25 10 -47t28.5 -40.5t42 -30t48.5 -11.5q43 0 77 37q88 96 159 193.5t118 204t72.5 225.5t25.5 260q0 139 -24.5 259t-72.5 226.5t-117.5 203.5t-160.5 194 q-37 37 -77 37q-25 0 -48.5 -11.5t-42 -30t-28.5 -41t-10 -47.5z" />
<glyph unicode="*" horiz-adv-x="763" d="M41 1083.5q0 -47.5 27.5 -63.5t52 -16t41.5 10l139 82v-162q0 -35 23.5 -58.5t58.5 -23.5q33 0 56.5 23.5t23.5 58.5v162l139 -82q10 -6 19.5 -8t19.5 -2q45 0 63.5 28.5t18.5 50.5q0 47 -39 70l-139 82l139 80q18 10 28.5 29.5t10.5 41.5q0 37 -23.5 58.5t-56.5 21.5 q-27 0 -41 -10l-139 -82v162q0 35 -23.5 57.5t-56.5 22.5q-35 0 -58.5 -22.5t-23.5 -57.5v-162l-139 82q-16 10 -39 10q-41 0 -61.5 -26.5t-20.5 -55.5q0 -47 39 -69l141 -80l-141 -82q-39 -22 -39 -69.5z" />
<glyph unicode="+" horiz-adv-x="856" d="M25 809q0 -41 27.5 -67.5t66.5 -26.5h215v-217q0 -39 26.5 -67t67.5 -28q39 0 66.5 28t27.5 67v217h215q39 0 66.5 26.5t27.5 67.5q0 39 -27.5 66.5t-66.5 27.5h-215v215q0 39 -27.5 66.5t-66.5 27.5q-41 0 -67.5 -27.5t-26.5 -66.5v-215h-215q-39 0 -66.5 -27.5 t-27.5 -66.5z" />
<glyph unicode="," horiz-adv-x="389" d="M41 147q0 -59 44 -103t105 -44q-10 -35 -28.5 -58.5t-44.5 -52.5q-14 -16 -15 -36q0 -25 19.5 -44.5t46.5 -19.5q25 0 43 21q66 68 101.5 149.5t35.5 159.5q0 47 -14.5 80.5t-37 55t-50 32t-53.5 10.5q-61 0 -106.5 -43.5t-45.5 -106.5z" />
<glyph unicode="-" horiz-adv-x="917" d="M41 809q0 -41 27.5 -67.5t66.5 -26.5h647q39 0 67 26.5t28 67.5q0 39 -28 66.5t-67 27.5h-647q-39 0 -66.5 -27.5t-27.5 -66.5z" />
<glyph unicode="." horiz-adv-x="378" d="M41 147q0 -59 44 -103t105 -44q59 0 103.5 44t44.5 103q0 61 -44 105.5t-104 44.5q-61 0 -105 -44.5t-44 -105.5z" />
<glyph unicode="/" horiz-adv-x="1073" d="M25 14q0 -31 23.5 -63.5t70.5 -32.5q27 0 50.5 13.5t35.5 37.5l833 1587q10 18 10.5 45t-10 46.5t-26 30t-31.5 15.5t-29 5q-27 0 -50 -13.5t-36 -37.5l-831 -1588q-10 -18 -10 -45z" />
<glyph unicode="0" horiz-adv-x="1267" d="M41 758q0 -385 151.5 -585t440.5 -200t441.5 200t152.5 585t-152.5 584.5t-441.5 199.5t-440.5 -199.5t-151.5 -584.5zM256 758q0 285 94 440.5t283 155.5q190 0 283.5 -156t93.5 -440q0 -287 -93.5 -441.5t-283.5 -154.5q-188 0 -282.5 154.5t-94.5 441.5z" />
<glyph unicode="1" horiz-adv-x="600" d="M27 1169.5q0 -34.5 23.5 -57t58.5 -22.5h182v-981q0 -45 31.5 -77t76.5 -32t76 31.5t31 77.5v1298q0 45 -32 75.5t-75 30.5q-39 0 -61.5 -18t-40.5 -48t-36.5 -64.5t-51.5 -65.5q-25 -25 -56.5 -38t-59 -26.5t-47 -31t-19.5 -52z" />
<glyph unicode="2" horiz-adv-x="1187" d="M41 135q0 -55 39 -95t96 -40h823q39 0 67 27.5t28 66.5t-28 66.5t-67 27.5h-675q-14 0 -14.5 16.5t15 45.5t44 62.5t68.5 69.5t91 69q127 80 240 139t197 121.5t133 143.5t49 204q0 106 -40 195t-111.5 152.5t-170 99.5t-213.5 36q-96 0 -192 -32.5t-173 -91t-124 -142.5 t-47 -184q0 -66 32.5 -97.5t73.5 -31.5t75 32.5t34 98.5q0 61 27.5 110t72.5 82t102.5 50.5t119 17.5t118.5 -15.5t101.5 -49.5t71 -87t26.5 -129q0 -80 -43 -140.5t-115 -115.5t-164 -108.5t-190 -116.5q-61 -41 -128 -97.5t-122 -119t-91 -125t-36 -115.5z" />
<glyph unicode="3" horiz-adv-x="1222" d="M41 414q0 -68 38 -146t113.5 -143.5t185 -108.5t255.5 -43q104 0 202.5 28t175 83t124 140t47.5 202q0 104 -31 175t-76 116t-97 68.5t-95 31.5q68 20 112.5 55t71.5 78t37 91.5t10 93.5q0 90 -36 164.5t-102.5 129t-159.5 84t-208 29.5q-152 0 -253 -45t-162.5 -107.5 t-88 -127t-26.5 -103.5q0 -59 28.5 -88t73.5 -29q29 0 54.5 18.5t35.5 57.5q33 139 122 193.5t216 54.5q61 0 115.5 -18.5t96.5 -50t66.5 -73.5t24.5 -91q0 -119 -80.5 -178.5t-277.5 -59.5q-39 0 -57.5 -26.5t-18.5 -57.5t18.5 -57.5t57.5 -26.5q199 0 300 -67.5 t101 -235.5q0 -70 -28.5 -122t-76.5 -86t-108.5 -51.5t-124.5 -17.5q-78 0 -142 21.5t-113.5 59.5t-81 91.5t-43.5 114.5q-8 41 -37 62.5t-64 21.5t-64.5 -25.5t-29.5 -78.5z" />
<glyph unicode="4" horiz-adv-x="1196" d="M27 512q0 -61 44 -104t105 -43h535v-256q0 -45 31.5 -77t76.5 -32t77 31.5t32 77.5v256h147q39 0 66.5 26.5t27.5 67.5q0 39 -27.5 66.5t-66.5 27.5h-147v848q0 47 -34 79.5t-81 32.5q-29 0 -52.5 -12t-33.5 -28l-672 -873q-16 -23 -22 -41t-6 -47zM254 553l457 606v-606 h-457z" />
<glyph unicode="5" horiz-adv-x="1204" d="M41 371q0 -37 32.5 -104.5t101.5 -132t175.5 -113t253.5 -48.5q113 0 214.5 37t178 105.5t121.5 167t45 223.5q0 109 -36.5 206t-105.5 169.5t-166 115.5t-220 43q-63 0 -114.5 -11t-89.5 -26.5t-63 -29.5l-40 -23l82 359h469q41 0 71.5 30.5t30.5 71.5q0 43 -30.5 72.5 t-71.5 29.5h-488q-51 0 -81.5 -11t-47 -30.5t-25 -46t-14.5 -57.5l-121 -549q-4 -20 -4 -31q0 -47 27 -80.5t70 -33.5q16 0 33.5 5t35.5 19q20 14 47 38t66 46.5t92 39t127 16.5q70 0 134.5 -21.5t112.5 -63.5t76.5 -103.5t28.5 -143.5q0 -78 -28.5 -139.5t-76.5 -103.5 t-112.5 -64.5t-134.5 -22.5q-147 0 -231 63.5t-132 170.5q-14 33 -37.5 47t-50.5 14q-39 0 -71.5 -27.5t-32.5 -72.5z" />
<glyph unicode="6" horiz-adv-x="1224" d="M41 750q0 -197 46 -342.5t127 -242.5t191.5 -144.5t237.5 -47.5q111 0 209 34t172 100.5t117 164t43 226.5q0 117 -48.5 209t-125 157.5t-171 100t-184.5 34.5q-74 0 -137 -16t-113.5 -42t-86 -55.5t-52.5 -56.5q0 39 5 93.5t20.5 113t42 115.5t68.5 103t101.5 75 t141.5 29q109 0 175.5 -53.5t119.5 -135.5q14 -23 35.5 -33t44.5 -10q39 0 71.5 26t32.5 69q0 27 -26.5 81t-84 107t-145.5 93t-211 40q-150 0 -264 -62.5t-193 -170t-119 -251.5t-40 -308zM297 496q0 70 26.5 130t71.5 103t105.5 67.5t130.5 24.5q74 0 139.5 -26.5 t113.5 -71.5t75.5 -107.5t27.5 -132t-27.5 -130t-74.5 -105.5t-109.5 -70.5t-132.5 -25.5q-72 0 -134.5 26.5t-109.5 72.5t-74.5 108.5t-27.5 136.5z" />
<glyph unicode="7" horiz-adv-x="1077" d="M27 1411q0 -41 30.5 -71.5t71.5 -30.5h670q-66 -70 -134.5 -164t-134 -201.5t-125 -222.5t-104.5 -227.5t-70.5 -217t-25.5 -190.5q0 -47 34.5 -83t84 -36t84 36t34.5 83q0 162 47.5 327t118 313t154.5 273t158 207q25 27 48 48.5t41.5 43t31 48t12.5 61.5q0 45 -32 75.5 t-77 30.5h-815q-41 0 -71.5 -29.5t-30.5 -72.5z" />
<glyph unicode="8" horiz-adv-x="1286" d="M41 455q0 -104 44 -192.5t124 -153t190.5 -100.5t243.5 -36q141 0 253 36t189.5 100.5t118.5 152.5t41 193q0 86 -39 155.5t-91 118.5t-102 77t-71 30q45 18 85 46.5t69.5 67.5t47 87t17.5 106q0 96 -39 171t-108.5 125t-163.5 76.5t-207 26.5t-208 -26.5t-163.5 -76.5 t-107.5 -125t-39 -171q0 -115 64.5 -193t154.5 -114q-23 -2 -72 -30t-101 -77t-91 -118.5t-39 -155.5zM258 444.5q0 79.5 34 135t88 91.5t122.5 51t140.5 15q70 0 139.5 -15t124 -51t88 -91.5t33.5 -135t-33.5 -137t-88 -92.5t-124 -51.5t-139.5 -16.5q-72 0 -140.5 16.5 t-122.5 51.5t-88 92.5t-34 137zM365 1240q27 42 69.5 69.5t98 42t110.5 14.5t110.5 -14.5t98.5 -42t69.5 -69.5t28.5 -97v-8q0 -52 -24 -93q-27 -43 -71 -72.5t-100.5 -45t-111.5 -15.5t-111.5 15.5t-100.5 45t-71 72.5q-25 40 -24 93q0 60 29 105z" />
<glyph unicode="9" horiz-adv-x="1224" d="M41 1016q0 -117 48 -209t125 -157.5t171 -100.5t184 -35q78 0 142.5 18.5t114 44t83 53t49.5 48.5q0 -166 -38.5 -267.5t-96 -158.5t-123 -76.5t-120.5 -19.5q-70 0 -121 18t-89 50t-66 77t-48 98q-10 27 -30 39q-21 10 -46 10q-39 0 -73.5 -26.5t-34.5 -73.5 q0 -31 29.5 -93t91 -124.5t154.5 -110t220 -47.5q150 0 264.5 61.5t192.5 169t119 252t41 310.5q0 197 -46 342t-128 241.5t-191.5 144.5t-238.5 48q-111 0 -208.5 -33.5t-171 -100.5t-116.5 -165t-43 -227zM238 1032q0 70 27.5 130.5t74.5 105.5t108.5 70.5t131.5 25.5 q72 0 135 -26.5t110 -73.5t75 -109.5t28 -136.5q0 -70 -26.5 -129.5t-72 -103.5t-105.5 -68.5t-130 -24.5q-74 0 -139.5 26.5t-113.5 73t-75.5 107.5t-27.5 133z" />
<glyph unicode=":" horiz-adv-x="460" d="M82 147q0 -59 44 -103t105 -44q59 0 103.5 44t44.5 103q0 61 -44 105.5t-104 44.5q-61 0 -105 -44.5t-44 -105.5zM82 1036q0 -59 44 -103t105 -44q59 0 103.5 44t44.5 103q0 61 -44 105.5t-104 44.5q-61 0 -105 -44.5t-44 -105.5z" />
<glyph unicode=";" horiz-adv-x="471" d="M82 147q0 -59 44 -103t105 -44q-10 -35 -28.5 -58.5t-44.5 -52.5q-14 -16 -15 -36q0 -25 19.5 -44.5t46.5 -19.5q25 0 43 21q66 68 101.5 149.5t35.5 159.5q0 47 -14.5 80.5t-37 55t-50 32t-54.5 10.5q-61 0 -106 -43.5t-45 -106.5zM82 1036q0 -59 44 -103t105 -44 q59 0 103.5 44t44.5 103q0 61 -44 105.5t-104 44.5q-61 0 -105 -44.5t-44 -105.5z" />
<glyph unicode="&#x3c;" horiz-adv-x="520" d="M25 809q0 -39 32 -72l260 -260q27 -27 66 -26.5t67.5 26t28.5 66.5t-28 69l-195 197l195 195q29 29 28 69q0 45 -29.5 68.5t-64.5 23.5q-41 0 -68 -26l-260 -260q-32 -33 -32 -70z" />
<glyph unicode="=" horiz-adv-x="911" d="M25 647q0 -35 23.5 -58.5t57.5 -23.5h701q35 0 57.5 23.5t22.5 58.5t-22.5 57.5t-57.5 22.5h-701q-35 0 -58 -22.5t-23 -57.5zM25 971q0 -35 23.5 -58.5t57.5 -23.5h701q35 0 57.5 23.5t22.5 58.5t-22.5 57.5t-57.5 22.5h-701q-35 0 -58 -22.5t-23 -57.5z" />
<glyph unicode="&#x3e;" horiz-adv-x="520" d="M41 543q0 -41 28.5 -66.5t67.5 -25.5t66 26l260 260q33 33 33 72q0 37 -33 70l-260 260q-27 27 -68 26q-35 0 -64.5 -23.5t-29.5 -68.5q0 -41 29 -69l194 -195l-194 -197q-29 -28 -29 -69z" />
<glyph unicode="?" horiz-adv-x="1110" d="M41 1208q0 -53 34 -83.5t75 -30.5q31 0 58.5 20.5t37.5 65.5q29 123 107.5 199.5t219.5 76.5q55 0 106.5 -18.5t90.5 -51t62.5 -77.5t23.5 -99q0 -74 -31.5 -128t-79 -100t-103.5 -89t-103 -96.5t-79 -121t-32 -161.5q0 -43 30.5 -74.5t76 -31.5t77 31.5t31.5 74.5 q0 70 32 121t79 97t102 90t102.5 99.5t79 127t31.5 172t-42 180.5t-110.5 133t-158.5 82t-185 29q-141 0 -241.5 -50.5t-165 -121t-95 -144.5t-30.5 -121zM387 147q0 -59 43 -103t104.5 -44t105.5 44t44 103q0 61 -44 105.5t-105.5 44.5t-104.5 -44.5t-43 -105.5z" />
<glyph unicode="@" horiz-adv-x="1267" d="M41 809q0 -123 47 -231.5t128 -188.5t188.5 -127t228.5 -47q23 0 39 16.5t16 39t-16.5 38t-38.5 15.5q-100 0 -188.5 37.5t-155 104t-104.5 155t-38 188.5t38 188t104.5 154t154.5 104.5t188.5 38.5t188.5 -38.5t154.5 -104.5t104.5 -154t38 -188q0 -68 -21.5 -135.5 t-53 -120.5t-66.5 -87t-62 -34q-20 0 -33.5 15.5t-13.5 37.5v463q0 82 -62.5 123t-166.5 41q-84 0 -130 -19.5t-67.5 -44t-26.5 -46t-5 -27.5q0 -23 17 -37t38 -14q27 0 39 22l16 30.5t22.5 25t37 16.5t59.5 6q41 0 81 -17.5t40 -58.5q0 -16 -4 -29.5t-19.5 -23.5 t-46.5 -17.5t-84 -13.5q-47 -4 -90 -16t-75.5 -33.5t-52 -55.5t-19.5 -83q0 -43 17 -74t46 -50.5t64.5 -29.5t70.5 -10q55 0 104.5 14.5t88.5 55.5v-97q0 -31 11 -60.5t31.5 -53t49.5 -38t61 -14.5q43 0 97.5 37t102.5 102.5t81 156t33 194.5q0 123 -47 230.5t-127 187.5 t-188.5 127t-231.5 47t-230.5 -47t-187.5 -127t-127 -187.5t-47 -230.5zM483 676q0 43 28 64.5t67.5 32.5t83 15.5t71.5 10.5l27 6v-72q0 -39 -15.5 -64.5t-39 -41t-53 -21.5t-60.5 -6q-39 0 -74 15.5t-35 60.5z" />
<glyph unicode="A" horiz-adv-x="1419" d="M25 127q0 -53 39.5 -90t95.5 -37q39 0 71.5 19.5t44.5 56.5l132 409h589l136 -389q16 -43 53 -69.5t80 -26.5q37 0 62.5 14.5t39.5 36t20.5 44t6.5 40.5q0 25 -11 51l-514 1323q-23 61 -66.5 98.5t-109 37.5t-109.5 -37t-67 -99l-487 -1343q-6 -19 -6 -39zM475 702 l211 674l236 -674h-447z" />
<glyph unicode="B" horiz-adv-x="1431" d="M94 162q0 -37 14.5 -68t37 -51t51 -31.5t59.5 -11.5h598q109 0 204 33t165.5 92t111.5 141t41 183q0 61 -14 122.5t-49 114.5t-92.5 97t-143.5 73q43 12 85 38t76 68t55.5 99t21.5 135q0 88 -31 165t-90 133t-146 89t-200 33h-592q-68 0 -115 -47t-47 -113v-1294z M336 215v526h469q147 0 236 -72.5t89 -205.5q0 -115 -64.5 -181.5t-229.5 -66.5h-500zM336 944v457h502q121 0 184 -64.5t63 -165.5q0 -51 -22.5 -93t-59 -71.5t-86 -46t-100.5 -16.5h-481z" />
<glyph unicode="C" horiz-adv-x="1482" d="M41 809q0 -164 46 -314.5t137 -267t229.5 -186.5t322.5 -70q174 0 298 59.5t202 140.5t114.5 163t36.5 127q0 55 -40.5 86t-88.5 31q-35 0 -65.5 -17.5t-42.5 -58.5q-18 -57 -51 -113.5t-84 -101.5t-120 -73t-159 -28q-102 0 -192 44t-157 126t-105.5 197t-38.5 256 t38.5 256t105.5 195.5t157 125t192 44.5q90 0 159 -28t120 -73t83.5 -100t51.5 -113q12 -41 43 -58.5t65 -17.5q47 0 88 32t41 87q0 61 -48 145.5t-135 159t-206.5 128t-261.5 53.5q-184 0 -322.5 -70t-229.5 -185.5t-137 -267t-46 -313.5z" />
<glyph unicode="D" horiz-adv-x="1456" d="M94 162q0 -37 14.5 -68t37 -51t51 -31.5t59.5 -11.5h485q121 0 242 41t217 136t155.5 250t59.5 382q0 225 -59.5 379.5t-155.5 250t-217 136.5t-242 41h-485q-68 0 -115 -47t-47 -113v-1294zM336 215v1186h358q121 0 211 -42t149.5 -119t88 -186.5t28.5 -244.5 q0 -137 -28.5 -246.5t-88 -186.5t-149.5 -119t-211 -42h-358z" />
<glyph unicode="E" horiz-adv-x="1347" d="M94 162q0 -37 14.5 -68t37 -51t51 -31.5t59.5 -11.5h944q43 0 75 30.5t32 76t-32 77t-75 31.5h-864v526h797q45 0 75.5 32t30.5 75q0 45 -30.5 76.5t-75.5 31.5h-797v445h848q45 0 75.5 31.5t30.5 76.5t-30.5 76t-75.5 31h-928q-68 0 -115 -47t-47 -113v-1294z" />
<glyph unicode="F" horiz-adv-x="1191" d="M94 121q0 -49 36 -85t85 -36q51 0 86 36t35 85v620h643q45 0 75.5 32t30.5 75q0 45 -30.5 76.5t-75.5 31.5h-643v445h706q45 0 77 31.5t32 76.5t-32 76t-77 31h-786q-68 0 -115 -47t-47 -113v-1335z" />
<glyph unicode="G" horiz-adv-x="1519" d="M41 809q0 -164 46 -314.5t137 -267t229.5 -186.5t322.5 -70q147 0 275.5 63.5t223.5 166t149.5 231.5t54.5 260q0 25 -2 59.5t-15.5 65.5t-42 53.5t-80.5 22.5h-383q-45 0 -75.5 -32t-30.5 -77t30.5 -76.5t75.5 -31.5h287q0 -96 -33.5 -185.5t-95 -157t-147.5 -107.5 t-191 -40q-102 0 -192 44t-157 126t-105.5 197t-38.5 256t38.5 256t105.5 195.5t157 125t192 44.5q90 0 152.5 -18.5t107.5 -50.5t77 -74t61 -91q23 -37 57.5 -54.5t68.5 -17.5q47 0 82 28t35 77q0 37 -32.5 106.5t-107.5 138t-198 120t-303 51.5q-184 0 -322.5 -70 t-229.5 -185.5t-137 -267t-46 -313.5z" />
<glyph unicode="H" horiz-adv-x="1482" d="M94 121q0 -49 36 -85t85 -36q51 0 86 36t35 85v612h809v-612q0 -49 36 -85t85 -36q51 0 87 36t36 85v1374q0 51 -36 86t-87 35q-49 0 -85 -35t-36 -86v-547h-809v547q0 51 -35 86t-86 35q-49 0 -85 -35t-36 -86v-1374z" />
<glyph unicode="I" horiz-adv-x="430" d="M94 121q0 -49 36 -85t85 -36q51 0 86 36t35 85v1374q0 51 -35 86t-86 35q-49 0 -85 -35t-36 -86v-1374z" />
<glyph unicode="J" horiz-adv-x="1089" d="M25 428q0 -106 35.5 -191t100 -143.5t153.5 -90.5t196 -32q244 0 364.5 121t120.5 336v1067q0 51 -35.5 86t-85.5 35q-51 0 -86.5 -35t-35.5 -86v-1067q0 -121 -71 -181.5t-171 -60.5q-45 0 -89 15.5t-78 46.5t-54.5 76t-20.5 104q0 49 -35.5 85t-87.5 36 q-49 0 -84.5 -36t-35.5 -85z" />
<glyph unicode="K" horiz-adv-x="1376" d="M94 121q0 -49 36 -85t85 -36q51 0 86 36t35 85v436l246 238l577 -754q33 -41 86 -41q12 0 30.5 4t36 16.5t29 33t11.5 52.5q0 39 -21 66l-592 772l504 488q33 31 33 75q0 35 -26.5 72t-82.5 37q-45 0 -73 -29l-758 -731v639q0 51 -35 86t-86 35q-49 0 -85 -35t-36 -86 v-1374z" />
<glyph unicode="L" horiz-adv-x="1224" d="M94 162q0 -37 14.5 -68t37 -51t51 -31.5t59.5 -11.5h836q45 0 76.5 30.5t31.5 76t-31.5 77t-76.5 31.5h-756v1280q0 51 -35 86t-86 35q-49 0 -85 -35t-36 -86v-1333z" />
<glyph unicode="M" horiz-adv-x="1724" d="M94 109q0 -45 32 -77t77 -32t75.5 31.5t30.5 77.5v1050l400 -1040q20 -53 58 -86t95.5 -33t95 33t58.5 86l399 1040v-1050q0 -45 31 -77t76 -32t76.5 31.5t31.5 77.5v1357q0 61 -44 105.5t-107 44.5q-72 0 -114 -48t-69 -116l-434 -1122l-434 1122q-27 68 -69 116 t-113 48q-63 0 -107.5 -44t-44.5 -106v-1357z" />
<glyph unicode="N" horiz-adv-x="1452" d="M94 121q0 -49 36 -85t85 -36q51 0 86 36t35 85v1069l735 -1092q31 -47 70 -72.5t96 -25.5q51 0 86 36t35 85v1374q0 51 -35 86t-86 35t-86 -35t-35 -86v-1077l-733 1100q-33 47 -72 72.5t-96 25.5q-49 0 -85 -35t-36 -86v-1374z" />
<glyph unicode="O" d="M41 809q0 -170 56.5 -321.5t159.5 -266.5t249.5 -182.5t329 -67.5t329 67.5t250 182.5t159.5 266.5t56 321.5q0 168 -56 319.5t-159.5 266t-250 182.5t-329 68t-329 -68t-249.5 -182.5t-159.5 -266t-56.5 -319.5zM283 809q0 141 43 256t117.5 194.5t175 123.5t217 44 t217 -44t175.5 -123.5t118 -194.5t43 -256t-43 -256t-118 -196t-175.5 -125t-217 -44t-217 44t-175 125t-117.5 196t-43 256z" />
<glyph unicode="P" horiz-adv-x="1347" d="M94 121q0 -49 36 -85t85 -36q51 0 86 36t35 85v569h508q96 0 180 36t147.5 99.5t99.5 147.5t36 180t-36 180t-99.5 147.5t-147.5 99.5t-180 36h-588q-68 0 -115 -47t-47 -113v-1335zM336 905v496h481q51 0 96 -19.5t79 -53.5t53.5 -79t19.5 -96t-19.5 -96t-53.5 -79 t-79 -53.5t-96 -19.5h-481z" />
<glyph unicode="Q" d="M41 809q0 -170 56.5 -321.5t159.5 -265t249.5 -181.5t329.5 -68q66 0 144.5 12.5t164.5 47.5l127 -168q16 -23 38.5 -33t47.5 -10q35 0 68.5 26.5t33.5 83.5q0 39 -16 60l-113 153q82 70 138.5 149t92 164t52 174t16.5 177q0 168 -56 319.5t-159.5 266t-250 182.5 t-329 68t-329 -68t-249.5 -182.5t-159.5 -266t-56.5 -319.5zM283 809q0 141 43 256t117.5 194.5t175 123.5t217 44t217 -44t175.5 -123.5t118 -194.5t43 -256q0 -137 -42 -256t-151 -227l-51 71q-16 23 -39 32t-47 9q-55 0 -82 -34.5t-27 -71.5t21 -64l39 -51 q-49 -16 -90 -22.5t-84 -6.5q-117 0 -217.5 44t-175 125t-117.5 196t-43 256z" />
<glyph unicode="R" horiz-adv-x="1460" d="M94 121q0 -49 36 -85t85 -36q51 0 86 36t35 85v569h457q53 0 102 -12t89 -39t65.5 -71t31.5 -107l31 -350q4 -49 39 -80t86 -31q57 0 90 41q29 36 29 79v11l-45 430q-4 31 -19.5 67t-43 68.5t-66.5 59t-90 39.5q80 14 138 51t97 87t58.5 107.5t19.5 112.5q0 94 -37 179 t-99.5 147.5t-147.5 99.5t-181 37h-684q-68 0 -115 -47t-47 -113v-1335zM336 905v496h577q51 0 96.5 -19.5t79 -53.5t53 -79t19.5 -96t-19.5 -96t-53 -79t-78.5 -53.5t-97 -19.5h-577z" />
<glyph unicode="S" horiz-adv-x="1402" d="M59 455q0 -61 37 -144.5t117 -158t208 -127t310 -52.5q127 0 239.5 31t196.5 92.5t132.5 153.5t48.5 217q0 113 -42 190.5t-112 131t-158 87t-181 58.5l-181 47q-88 23 -158 53.5t-112 75.5t-42 115q0 51 26 91t72 67.5t108.5 43t136.5 15.5q49 0 102 -7.5t101 -29 t88 -59t65 -99.5q16 -39 42.5 -56t57.5 -17q43 0 79 31.5t36 84.5q0 63 -41 127t-116 115t-178 82t-226 31q-127 0 -233.5 -29t-184.5 -84t-122 -135t-44 -183q0 -109 42 -181t110.5 -122.5t156.5 -82t181 -56.5l180 -48q88 -24 156.5 -58.5t110.5 -86t42 -128.5 q0 -72 -36 -123.5t-92 -83t-125 -47t-132 -15.5q-80 0 -155.5 20.5t-137 60.5t-103.5 99.5t-55 137.5q-6 47 -34.5 68.5t-63.5 21.5q-41 0 -79 -30.5t-38 -104.5z" />
<glyph unicode="T" horiz-adv-x="1277" d="M27 1509q0 -45 31.5 -76.5t76.5 -31.5h383v-1280q0 -49 35 -85t86 -36q49 0 85 36t36 85v1280h383q45 0 76.5 31.5t31.5 76.5t-31.5 76t-76.5 31h-1008q-45 0 -76.5 -31t-31.5 -76z" />
<glyph unicode="U" horiz-adv-x="1482" d="M94 539q0 -158 54.5 -266.5t143.5 -175t205.5 -95.5t243.5 -29q125 0 243 29t207 95.5t143.5 175t54.5 266.5v956q0 51 -36 86t-87 35q-49 0 -85 -35t-36 -86v-956q0 -96 -34 -164t-90 -109t-129 -59.5t-150.5 -18.5t-151.5 18.5t-130.5 59.5t-90 108.5t-33.5 164.5v956 q0 51 -35 86t-86 35q-49 0 -85 -35t-36 -86v-956z" />
<glyph unicode="V" horiz-adv-x="1339" d="M25 1495q0 -20 6 -41l483 -1339q18 -53 58 -84t97.5 -31t97.5 30.5t58 84.5l484 1339q6 20 6 41q0 35 -11.5 58.5t-30 37t-39 19.5t-38.5 6q-39 0 -70.5 -20.5t-44.5 -57.5l-411 -1214l-412 1214q-12 37 -44 57.5t-71 20.5q-41 0 -64.5 -14.5t-35.5 -34t-15 -40t-3 -32.5 z" />
<glyph unicode="W" horiz-adv-x="2023" d="M25 1493q0 -12 4 -33l387 -1360q14 -47 52 -73.5t89 -26.5q47 0 84 25.5t49 72.5l322 1250l321 -1250q12 -47 49 -72.5t86 -25.5q51 0 88 26.5t52 73.5l387 1360q4 10 4 17v18q0 43 -32 81t-89 38q-41 0 -72.5 -22.5t-42.5 -63.5l-301 -1149l-278 1089q-16 63 -61.5 99.5 t-110.5 36.5q-63 0 -109.5 -36t-62.5 -100l-277 -1089l-301 1149q-10 41 -43 63.5t-74 22.5q-37 0 -60.5 -13.5t-36.5 -33t-18 -40t-5 -34.5z" />
<glyph unicode="X" horiz-adv-x="1292" d="M41 106q0 -43 30.5 -74.5t75.5 -31.5q27 0 50.5 11.5t40.5 33.5l407 590l410 -590q31 -45 88 -45q55 0 81.5 37t26.5 69.5t-18 61.5l-457 655l434 625q20 27 21 61q0 55 -37 81t-72 26q-25 0 -48 -11.5t-40 -33.5l-389 -559l-387 559q-33 45 -90 45q-29 0 -49.5 -11.5 t-32.5 -26.5t-18.5 -34.5t-6.5 -34.5q0 -35 19 -61l434 -625l-455 -655q-18 -29 -18 -62z" />
<glyph unicode="Y" horiz-adv-x="1394" d="M25 1509q0 -35 18 -61l532 -764v-563q0 -49 36 -85t85 -36q51 0 87 36t36 85v563l533 764q18 27 18 61q0 31 -11 51.5t-27.5 33t-35 17.5t-32.5 5q-25 0 -48.5 -11.5t-39.5 -33.5l-480 -684l-477 684q-16 23 -39.5 34t-48.5 11q-43 0 -74.5 -30t-31.5 -77z" />
<glyph unicode="Z" horiz-adv-x="1470" d="M94 147q0 -59 44 -103t106 -44h1063q45 0 76.5 30.5t31.5 76t-31.5 77t-76.5 31.5h-910l901 1155q18 23 28.5 45.5t10.5 52.5q0 61 -44 104.5t-103 43.5h-950q-45 0 -76 -31t-31 -76t31 -76.5t76 -31.5h784l-891 -1151q-20 -25 -29.5 -47.5t-9.5 -55.5z" />
<glyph unicode="[" horiz-adv-x="688" d="M94 -53q0 -66 20.5 -108t53.5 -66.5t69.5 -33.5t71.5 -9h215q45 0 77 31.5t32 76.5t-32 77t-77 32h-106q-53 0 -81 32.5t-28 73.5v1510q0 57 35 82.5t74 25.5h106q45 0 77 31t32 76t-32 76.5t-77 31.5h-215q-61 0 -103 -20.5t-66.5 -53t-35 -70.5t-10.5 -71v-1724z" />
<glyph unicode="\" horiz-adv-x="1073" d="M25 1602q0 -27 10 -46l831 -1587q12 -25 36 -38t50 -13q51 0 74 32t23 64q0 27 -11 45l-833 1588q-12 25 -36 38t-50 13q-29 0 -46.5 -10.5t-28.5 -25.5t-15 -31.5t-4 -28.5z" />
<glyph unicode="]" horiz-adv-x="673" d="M41 -162q0 -45 31.5 -76.5t77.5 -31.5h215q59 0 100 19.5t66.5 50t37 69.5t11.5 78v1724q0 55 -18.5 96t-49.5 67t-70 39t-77 13h-215q-45 0 -77 -31.5t-32 -76.5t31.5 -76t77.5 -31h108q31 0 51.5 -11t32.5 -27.5t17.5 -36t5.5 -33.5v-1510q0 -53 -33 -79.5t-74 -26.5 h-108q-45 0 -77 -32t-32 -77z" />
<glyph unicode="^" horiz-adv-x="491" d="M41 1438q0 -29 18.5 -41.5t34.5 -12.5q25 0 41 17l111 110l110 -110q16 -16 41 -17q29 0 41.5 21.5t12.5 34.5q0 20 -17 37l-147 147q-20 20 -41 20.5t-41 -20.5l-148 -147q-16 -16 -16 -39z" />
<glyph unicode="_" horiz-adv-x="1400" d="M0 -270q0 -45 31.5 -76t77.5 -31h1292q45 0 76.5 31t31.5 76t-31.5 76.5t-76.5 31.5h-1292q-45 0 -77 -31.5t-32 -76.5z" />
<glyph unicode="`" horiz-adv-x="380" d="M41 1505q0 -20 8 -38.5t25 -28.5l162 -105q23 -16 49 -16q33 0 44 20.5t11 36.5q0 25 -16 47l-105 162q-20 33 -65 33q-31 0 -51.5 -11.5t-35 -27.5t-20.5 -36t-6 -36z" />
<glyph unicode="a" horiz-adv-x="1116" d="M41 330q0 -86 35 -147.5t91 -102.5t127 -60.5t140 -19.5q111 0 210 28.5t177 112.5v-32q0 -45 32 -77t77 -32t75.5 31.5t30.5 77.5v763q0 162 -124 245t-332 83q-111 0 -188 -19.5t-129 -52t-82.5 -74.5t-49.5 -85q-10 -27 -10 -45q0 -47 34.5 -74t75.5 -27 q23 0 44.5 11.5t33.5 35.5q14 31 31.5 59.5t46.5 49t74 33t119 12.5q41 0 84 -9t77.5 -27.5t57 -47.5t22.5 -68q0 -33 -7 -59.5t-38 -47t-92 -35.5t-170 -28q-94 -10 -179 -32.5t-150.5 -65.5t-104.5 -109.5t-39 -164.5zM270 330q0 57 26 94t69 60.5t96 35.5t109.5 20.5 t108.5 14.5t91 18l51 15v-146q0 -76 -29.5 -127t-77.5 -81.5t-107.5 -44t-119.5 -13.5q-39 0 -77.5 7t-69.5 24.5t-50.5 47.5t-19.5 75z" />
<glyph unicode="b" horiz-adv-x="1185" d="M94 109q0 -45 32 -77t77 -32t75.5 31.5t30.5 77.5v18q41 -35 77 -59.5t75 -40t86 -21.5t108 -6q100 0 189.5 43t156 122t105.5 187.5t39 239.5t-35 240.5t-99.5 188.5t-154.5 122t-201 43q-84 0 -145 -20.5t-102 -48t-65 -54.5l-34 -39v485q0 45 -30.5 76t-75.5 31 t-77 -31t-32 -76v-1400zM297 592q0 82 21.5 156.5t62.5 133t101.5 93.5t138.5 35q76 0 136 -35t102 -93.5t63.5 -133t21.5 -156.5q0 -80 -21.5 -156t-63.5 -133t-102.5 -92t-135.5 -35q-78 0 -138.5 35t-101.5 92t-62.5 133t-21.5 156z" />
<glyph unicode="c" horiz-adv-x="1126" d="M41 592q0 -135 43 -247t119 -191.5t179 -123.5t224 -44q145 0 238.5 41t146.5 94t73.5 105.5t20.5 74.5q0 45 -33.5 70.5t-74.5 25.5q-29 0 -53.5 -14t-34.5 -49q-10 -33 -34 -63.5t-59.5 -55.5t-83.5 -39t-106 -14q-63 0 -125.5 23.5t-113 74.5t-81 133t-30.5 199 t30.5 199.5t81 134t113 75t125.5 23.5q57 0 105.5 -14.5t84 -39t59.5 -55t34 -63.5q10 -35 34.5 -49.5t53.5 -14.5q41 0 73.5 26t32.5 73q0 37 -28.5 90t-87 102t-148.5 85t-213 36q-121 0 -224 -44t-179 -124t-119 -191.5t-43 -248.5z" />
<glyph unicode="d" horiz-adv-x="1185" d="M41 592q0 -131 39 -239.5t105.5 -187.5t155.5 -122t189 -43q61 0 108.5 6t86.5 21.5t75 40t77 59.5v-18q0 -45 30.5 -77t75.5 -32t77 31.5t32 77.5v1400q0 45 -32 76t-77 31t-75.5 -31t-30.5 -76v-485l-34 39q-24 27 -65 54.5t-102.5 48t-145.5 20.5q-111 0 -200.5 -43 t-154 -122t-99.5 -188.5t-35 -240.5zM242 592q0 82 21.5 156.5t63.5 133t101 93.5t137 35t138.5 -35t101.5 -93.5t62.5 -133t21.5 -156.5q0 -80 -21.5 -156t-62.5 -133t-101.5 -92t-138.5 -35t-137 35t-101 92t-63.5 133t-21.5 156z" />
<glyph unicode="e" horiz-adv-x="1191" d="M41 592q0 -121 38 -231.5t110.5 -193.5t179 -132t241.5 -49q133 0 225.5 36.5t150.5 86t85 98.5t27 74q0 41 -31 67.5t-68 26.5q-23 0 -43 -10.5t-36 -34.5q-29 -43 -57.5 -75t-63.5 -52.5t-80 -30.5t-109 -10q-78 0 -132 25.5t-91 64.5t-58.5 85t-32.5 87t-14 70.5 t-3 33.5h749q49 0 86 39t37 115q0 123 -43 219t-118 162.5t-176 101.5t-218 35q-127 0 -229.5 -48t-175 -130t-111.5 -193.5t-39 -236.5zM281 705q0 4 2 29.5t12 60t30.5 75.5t56.5 75t89 56.5t129 22.5q88 0 153.5 -26.5t107.5 -70.5t62.5 -101.5t20.5 -120.5h-663z" />
<glyph unicode="f" horiz-adv-x="663" d="M41 1065q0 -41 27.5 -67.5t66.5 -26.5h76v-862q0 -45 30.5 -77t75.5 -32t77 31.5t32 77.5v862h102q39 0 67 26.5t28 67.5q0 39 -28 66.5t-67 27.5h-102v191q0 35 19.5 43t31.5 8h37q45 0 77 31.5t32 76.5t-32 76t-77 31h-37q-66 0 -115 -23.5t-82.5 -62.5t-51 -86 t-17.5 -94v-191h-76q-39 0 -66.5 -27.5t-27.5 -66.5z" />
<glyph unicode="g" horiz-adv-x="1198" d="M41 592q0 -154 37 -266.5t103.5 -184t159.5 -106.5t204 -35q76 0 133 17.5t100 42t74 52t51 50.5v-135q0 -72 -24.5 -124.5t-67.5 -86t-100.5 -49t-122.5 -15.5q-61 0 -105.5 8.5t-78 24.5t-60.5 39.5t-53 54.5q-37 39 -74 39t-63.5 -30.5t-26.5 -71.5q0 -25 26.5 -67 t84 -82t143.5 -69.5t207 -29.5q111 0 207 33.5t167.5 94t113.5 144.5t42 187v1050q0 45 -31.5 77t-76.5 32t-76 -32t-31 -77v-18q-59 49 -146 88t-212 39q-102 0 -193.5 -35t-160 -107.5t-109.5 -184t-41 -267.5zM242 592q0 205 90 311.5t247.5 106.5t246.5 -106.5 t89 -311.5t-89 -310.5t-246.5 -105.5t-247.5 105.5t-90 310.5z" />
<glyph unicode="h" horiz-adv-x="1144" d="M94 109q0 -45 32 -77t77 -32t75.5 31.5t30.5 77.5v606q0 61 23.5 114.5t65.5 93.5t97.5 63.5t116.5 23.5q47 0 90 -17.5t76 -48.5t52.5 -73t19.5 -89v-673q0 -45 30.5 -77t75.5 -32t77 31.5t32 77.5v673q0 92 -32 167t-89 127t-137 81t-174 29q-106 0 -182 -41t-142 -117 v481q0 45 -30.5 76t-75.5 31t-77 -31t-32 -76v-1400z" />
<glyph unicode="i" horiz-adv-x="374" d="M66 1495q0 -49 35.5 -85t86.5 -36q49 0 85 36t36 85q0 51 -35.5 86t-85.5 35q-51 0 -86.5 -35t-35.5 -86zM80 109q0 -45 31.5 -77t76.5 -32t76 31.5t31 77.5v968q0 45 -31 77t-76 32t-76.5 -32t-31.5 -77v-968z" />
<glyph unicode="j" horiz-adv-x="403" d="M-137 -324q0 -45 31.5 -76.5t76.5 -31.5h70q55 0 104.5 21.5t85 58.5t57 86t21.5 104v1239q0 45 -30.5 77t-75.5 32t-77 -32t-32 -77v-1186q0 -106 -108 -106h-15q-45 0 -76.5 -32t-31.5 -77zM80 1495q0 -49 36 -85t87 -36q49 0 85 36t36 85q0 51 -36 86t-85 35 q-51 0 -87 -35t-36 -86z" />
<glyph unicode="k" horiz-adv-x="1095" d="M94 109q0 -45 32 -77t77 -32t75.5 31.5t30.5 77.5v368l158 135l393 -569q16 -23 39 -33t49 -10q16 0 34.5 6t35 18.5t27 32t10.5 47.5q0 33 -19 62l-413 586l313 270q33 29 33 70q0 45 -31 69.5t-64 24.5q-35 0 -63 -23l-502 -436v782q0 45 -30.5 76t-75.5 31t-77 -31 t-32 -76v-1400z" />
<glyph unicode="l" horiz-adv-x="403" d="M94 109q0 -45 32 -77t77 -32t75.5 31.5t30.5 77.5v1400q0 45 -30.5 76t-75.5 31t-77 -31t-32 -76v-1400z" />
<glyph unicode="m" horiz-adv-x="1669" d="M80 109q0 -45 31.5 -77t76.5 -32t76 31.5t31 77.5v593q0 59 15.5 114.5t47 98.5t80.5 69t117 26q82 0 127 -51.5t45 -122.5v-727q0 -45 32 -77t77 -32t75.5 31.5t30.5 77.5v593q0 59 15.5 114.5t47 98.5t81 69t116.5 26q78 0 125 -51.5t47 -122.5v-727q0 -45 32 -77 t77 -32t75.5 31.5t30.5 77.5v737q0 84 -26.5 147.5t-72.5 106.5t-108.5 64.5t-136.5 21.5q-115 0 -199.5 -44t-140.5 -145q-41 80 -114.5 134.5t-176.5 54.5q-74 0 -128 -18.5t-93 -43t-62 -51.5l-36 -41v45q0 45 -31 77t-76 32t-76.5 -32t-31.5 -77v-968z" />
<glyph unicode="n" horiz-adv-x="1120" d="M80 109q0 -45 31.5 -77t76.5 -32t76 31.5t31 77.5v593q0 66 20.5 122.5t58.5 97.5t93 64.5t123 23.5q41 0 83 -12.5t75.5 -36t55 -59.5t21.5 -81v-712q0 -45 31 -77t76 -32t76.5 31.5t31.5 77.5v737q0 84 -32.5 147.5t-88 106.5t-126 64.5t-146.5 21.5q-74 0 -130 -15.5 t-99 -38t-73 -48.5l-50 -44v37q0 45 -31 77t-76 32t-76.5 -32t-31.5 -77v-968z" />
<glyph unicode="o" horiz-adv-x="1212" d="M41 591.5q0 -145.5 43 -258t119 -189t179 -117.5t224 -41t224.5 41t179 117.5t118.5 189t43 258t-43 258.5t-118.5 190.5t-179 118.5t-224.5 41t-224 -41t-179 -118.5t-119 -190.5t-43 -258.5zM256 592q0 113 26.5 194.5t72.5 134t110.5 78t140.5 25.5t140.5 -25.5 t110.5 -78t72.5 -134t26.5 -194.5t-26.5 -194t-72.5 -133t-110.5 -77.5t-140.5 -25.5t-140.5 25.5t-110.5 77.5t-72.5 133t-26.5 194z" />
<glyph unicode="p" horiz-adv-x="1185" d="M94 -324q0 -45 32 -76.5t77 -31.5t75.5 31.5t30.5 76.5v480l55 -53q30 -28 69.5 -50t94 -37.5t127.5 -15.5q111 0 201 43t154.5 122t99.5 187.5t35 239.5t-39 240.5t-105.5 188.5t-155.5 122t-190 43q-61 0 -108 -6t-86 -21.5t-75 -40t-77 -59.5v18q0 45 -30.5 77 t-75.5 32t-77 -32t-32 -77v-1401zM297 592q0 82 21.5 156.5t62.5 133t101.5 93.5t138.5 35q76 0 136 -35t102 -93.5t63.5 -133t21.5 -156.5q0 -80 -21.5 -156t-63.5 -133t-102.5 -92t-135.5 -35q-78 0 -138.5 35t-101.5 92t-62.5 133t-21.5 156z" />
<glyph unicode="q" horiz-adv-x="1185" d="M41 592q0 -131 35 -239.5t99.5 -187.5t154.5 -122t200 -43q74 0 128.5 15.5t94.5 38t69 49.5l55 53v-480q0 -45 30.5 -76.5t75.5 -31.5t77 31.5t32 76.5v1401q0 45 -32 77t-77 32t-75.5 -32t-30.5 -77v-18q-41 35 -77 59.5t-75 40t-86 21.5t-109 6q-100 0 -189 -43 t-155.5 -122t-105.5 -188.5t-39 -240.5zM242 592q0 82 21.5 156.5t63.5 133t101 93.5t137 35t138.5 -35t101.5 -93.5t62.5 -133t21.5 -156.5q0 -80 -21.5 -156t-62.5 -133t-101.5 -92t-138.5 -35t-137 35t-101 92t-63.5 133t-21.5 156z" />
<glyph unicode="r" horiz-adv-x="681" d="M80 109q0 -45 31.5 -77t76.5 -32t76 31.5t31 77.5v550q0 35 10 88.5t38 102.5t77 85t127 36q45 0 76.5 31.5t31.5 74.5q0 45 -31.5 77t-76.5 32q-47 0 -89 -19.5t-76 -45t-56.5 -50l-30.5 -33.5v39q0 45 -31 77t-76 32t-76.5 -32t-31.5 -77v-968z" />
<glyph unicode="s" horiz-adv-x="1103" d="M51 322q0 -29 26.5 -84.5t87 -111.5t156 -98t234.5 -42q98 0 188.5 19.5t158 63.5t108.5 114.5t41 172.5q0 86 -33 143.5t-87 97.5t-124 63.5t-141.5 41t-141 30.5t-124 32.5t-87 47.5t-32.5 73q0 59 56 99t181 40q63 0 105.5 -9t72 -27.5t48 -47.5t34.5 -68 q12 -29 35 -42t49 -13q43 0 80 27.5t37 75.5q0 20 -13.5 46.5t-34 54.5t-43 51.5t-42.5 39.5q-51 39 -131 63.5t-197 24.5q-209 0 -325.5 -90t-116.5 -250q0 -111 55 -173t137 -96t179.5 -51.5t179.5 -38t137 -55t55 -104.5q0 -35 -14 -66.5t-44 -57t-77 -41t-113 -15.5 q-143 0 -220 59.5t-111 147.5q-12 31 -35 45t-47 14q-39 0 -73 -29.5t-34 -76.5z" />
<glyph unicode="t" horiz-adv-x="673" d="M41 1065q0 -41 27.5 -67.5t66.5 -26.5h76v-862q0 -45 30.5 -77t75.5 -32t77 31.5t32 77.5v862h113q39 0 66.5 26.5t27.5 67.5q0 39 -27.5 66.5t-66.5 27.5h-113v256q0 45 -32 76t-77 31t-75.5 -31t-30.5 -76v-256h-76q-39 0 -66.5 -27.5t-27.5 -66.5z" />
<glyph unicode="u" horiz-adv-x="1120" d="M80 340q0 -84 32.5 -147.5t88 -106.5t126 -64.5t146.5 -21.5q74 0 130 15.5t99 38t73 47.5l50 44v-36q0 -45 31 -77t76 -32t76.5 31.5t31.5 77.5v968q0 45 -31.5 77t-76.5 32t-76 -32t-31 -77v-594q0 -66 -20.5 -122t-58 -97t-93 -64.5t-123.5 -23.5q-41 0 -82.5 12.5 t-75.5 36t-55.5 58t-21.5 82.5v712q0 45 -31 77t-76 32t-76.5 -32t-31.5 -77v-737z" />
<glyph unicode="v" horiz-adv-x="1048" d="M27 1077q0 -16 6 -35l329 -923q20 -53 61.5 -86t100.5 -33q57 0 98.5 33t61.5 86l332 923q6 18 6 35q0 31 -12.5 52.5t-28.5 34t-35.5 17.5t-32.5 5q-35 0 -63.5 -19.5t-38.5 -52.5l-287 -868l-288 868q-10 33 -39 52.5t-64 19.5q-29 0 -49.5 -11.5t-32.5 -29t-18 -36 t-6 -32.5z" />
<glyph unicode="w" horiz-adv-x="1660" d="M27 1079q0 -20 6 -35l301 -925q16 -53 55 -86t96 -33q53 0 91 33t55 86l198 723l199 -723q16 -53 54 -86t93.5 -33t95.5 33t56 86l301 925q6 14 6 35q0 31 -11 51.5t-28.5 33t-36 17.5t-32.5 5q-35 0 -63.5 -19.5t-39.5 -54.5l-252 -833l-204 768q-14 51 -48 85.5 t-89.5 34.5t-89 -35.5t-48.5 -84.5l-205 -768l-249 833q-10 35 -40 54.5t-65 19.5t-55.5 -12.5t-31.5 -30t-15 -35t-4 -29.5z" />
<glyph unicode="x" horiz-adv-x="1034" d="M41 111q0 -31 11 -52.5t28.5 -35t38 -18.5t39.5 -5q23 0 44 8t36 31l280 432l279 -432q14 -23 35.5 -31t46.5 -8q49 0 81.5 31.5t32.5 79.5q0 39 -22 67l-338 436l315 400q23 29 23 65q0 39 -26.5 73t-76.5 34q-57 0 -92 -51l-258 -375l-260 375q-35 51 -92 51 q-49 0 -76 -34t-27 -73q0 -37 23 -65l315 -400l-338 -436q-22 -28 -22 -67z" />
<glyph unicode="y" horiz-adv-x="1150" d="M27 1075q0 -20 10 -45l471 -1012l-51 -143q-14 -41 -32.5 -62.5t-39 -30.5t-42 -11t-40.5 -2h-63q-41 0 -69 -29t-28 -70t28 -68.5t69 -27.5h98q76 0 128 22.5t86 57.5t55.5 79t37.5 85l471 1212q4 10 6 20.5t2 20.5q0 59 -34.5 87t-71.5 28t-66.5 -23.5t-44.5 -60.5 l-311 -846l-356 856q-14 35 -44 54.5t-65 19.5q-29 0 -48.5 -11.5t-31.5 -28t-18 -36t-6 -35.5z" />
<glyph unicode="z" horiz-adv-x="1079" d="M41 135q0 -55 40 -95t95 -40h756q43 0 74.5 30.5t31.5 76t-31.5 77t-74.5 31.5h-596l592 752q16 20 24.5 38.5t8.5 45.5q0 55 -40 95t-96 40h-626q-45 0 -77 -32t-32 -77t32 -75.5t77 -30.5h471l-598 -754q-16 -20 -23.5 -38.5t-7.5 -43.5z" />
<glyph unicode="{" horiz-adv-x="878" d="M55 647q0 -57 19.5 -98t50.5 -66.5t69.5 -38t77.5 -12.5h13v-485q0 -66 21.5 -108t54 -66.5t70.5 -33.5t69 -9h217q45 0 75.5 31.5t30.5 76.5t-30.5 77t-75.5 32h-109q-53 0 -80.5 32.5t-27.5 73.5v594h-107q-57 0 -82.5 35t-25.5 74v106q0 57 34.5 83t73.5 26h107v592 q0 57 34.5 82.5t73.5 25.5h109q45 0 75.5 31t30.5 76t-30.5 76.5t-75.5 31.5h-217q-61 0 -103.5 -20.5t-67 -53t-34.5 -70.5t-10 -71v-485h-13q-61 0 -103 -20.5t-66.5 -52.5t-36 -69.5t-11.5 -72.5v-324z" />
<glyph unicode="|" horiz-adv-x="403" d="M94 0q0 -45 31 -77t76 -32t76.5 32t31.5 77v1616q0 45 -31.5 76.5t-76.5 31.5t-76 -31.5t-31 -76.5v-1616z" />
<glyph unicode="}" horiz-adv-x="878" d="M55 -162q0 -45 31 -76.5t76 -31.5h217q31 0 68.5 9t70.5 33.5t54.5 66.5t21.5 108v485h12q39 0 78 12.5t69.5 38t50 66.5t19.5 98v324q0 35 -11 72.5t-35.5 69.5t-66.5 52.5t-104 20.5h-12v485q0 33 -10.5 71t-35 70.5t-66.5 53t-103 20.5h-217q-45 0 -76 -31.5 t-31 -76.5t31 -76t76 -31h108q39 0 74 -25.5t35 -82.5v-592h106q39 0 74 -25.5t35 -83.5v-106q0 -39 -25.5 -74t-83.5 -35h-106v-594q0 -41 -27.5 -73.5t-81.5 -32.5h-108q-45 0 -76 -32t-31 -77z" />
<glyph unicode="~" horiz-adv-x="813" d="M41 1468q0 -45 32.5 -76.5t78.5 -31.5q29 0 45 12t29 27l26 26q12 12 35 13q4 0 16 -4l242 -66q25 -6 47 -6q33 0 65.5 10t58 29.5t41 47.5t15.5 60q0 45 -31.5 76t-76.5 31q-27 0 -43.5 -11.5t-29.5 -25.5t-27.5 -25.5t-35.5 -11.5h-10q-4 0 -8 2l-242 66q-25 6 -47 6 q-35 0 -66.5 -10.5t-57 -30t-41 -47t-15.5 -60.5z" />
<glyph unicode="&#xa1;" horiz-adv-x="485" d="M94 1468.5q0 -61.5 44 -104.5t104 -43q61 0 105 43t44 104.5t-44 104.5t-105 43q-59 0 -103.5 -43t-44.5 -104.5zM121 121q0 -49 36 -85t85 -36q51 0 85.5 36t34.5 85v983q0 51 -34.5 87t-85.5 36q-49 0 -85 -36t-36 -87v-983z" />
<glyph unicode="&#xa2;" horiz-adv-x="1124" d="M41 835.5q0 -137.5 42 -246t112.5 -186t164 -121.5t193.5 -51v-129q0 -18 13.5 -31.5t31.5 -13.5t31.5 13.5t13.5 31.5v127q111 0 194 38t138 88.5t81.5 103.5t26.5 84q0 47 -33.5 72.5t-72.5 25.5q-29 0 -53.5 -15.5t-34.5 -47.5q-23 -66 -87.5 -114t-158.5 -59v861 q96 -10 160.5 -58.5t85.5 -113.5q10 -35 34.5 -49.5t53.5 -14.5q41 0 73.5 25.5t32.5 72.5q0 27 -24.5 78t-78.5 102.5t-137 90.5t-200 41v90q0 18 -13.5 31.5t-31.5 13.5t-31.5 -13.5t-13.5 -31.5v-90q-104 -10 -197.5 -55.5t-163 -121t-110.5 -183t-41 -245zM256 835.5 q0 116.5 28.5 194.5t73.5 127t96.5 72.5t98.5 34.5v-856q-43 8 -95 31.5t-97.5 72.5t-75 128t-29.5 195.5z" />
<glyph unicode="&#xa3;" horiz-adv-x="1134" d="M41 829.5q0 -34.5 25.5 -60.5t60.5 -26h121q25 -72 36 -130t11 -107q0 -86 -25.5 -143.5t-57.5 -97.5l-57 -69q-26 -30 -26 -65q0 -12 9 -30.5t25.5 -36t39 -29.5t49.5 -12q25 0 50.5 9t53 21.5t56 21.5t59.5 9q70 0 110 -17.5t76.5 -38t80.5 -38t124 -17.5 q57 0 99.5 14.5t70 35t40.5 45t13 43.5q0 47 -28.5 73.5t-69.5 26.5q-25 0 -37 -7l-24 -15q-12 -7 -31.5 -14t-58.5 -7q-55 0 -92 15.5t-73 35t-76 34.5t-101 15q-14 0 -29.5 -1t-34.5 -3q-18 0 -6 17q35 49 54.5 109.5t19.5 137.5q0 47 -8.5 100.5t-22.5 114.5h213 q37 0 61.5 26t24.5 60.5t-24.5 60t-61.5 25.5h-270q-12 53 -36 121t-24 160q0 53 14.5 99t46 81t81 54.5t120.5 19.5q74 0 122 -22.5t77 -56.5t44 -74t24 -76q10 -37 40.5 -55.5t65.5 -18.5q41 0 75 22.5t34 75.5q0 57 -27 128t-84 130.5t-146 100.5t-214 41 q-98 0 -189.5 -30t-161 -88.5t-110.5 -144.5t-41 -196q0 -33 8 -72t18.5 -77t22.5 -69.5t18 -52.5h-61q-35 0 -60.5 -25.5t-25.5 -60z" />
<glyph unicode="&#xa4;" horiz-adv-x="1224" d="M41 115q0 -37 28.5 -66t65.5 -29q39 0 68 29l184 184q47 -31 104.5 -48t121 -17t121 17.5t106.5 47.5l182 -184q29 -29 68 -29q37 0 65.5 29t28.5 66q0 39 -29 67l-184 185q31 49 48 106t17 118.5t-17.5 119t-47.5 106.5l184 184q29 29 29 68q0 37 -29 65.5t-65 28.5 q-39 0 -68 -28l-184 -185q-47 31 -104.5 48.5t-121.5 17.5q-61 0 -118.5 -17.5t-106.5 -48.5l-184 185q-29 29 -68 28q-37 0 -65.5 -28.5t-28.5 -65.5q0 -39 29 -68l184 -184q-31 -47 -48.5 -104.5t-17.5 -120.5q0 -61 17.5 -118.5t48.5 -106.5l-184 -185q-29 -28 -29 -67z M377 592q0 49 18.5 92t50 75t74.5 50t92.5 18t92.5 -18t74.5 -50t50 -75t18.5 -92t-18.5 -92t-50 -75t-74.5 -50.5t-92.5 -18.5t-92.5 18.5t-74.5 50.5t-50 75t-18.5 92z" />
<glyph unicode="&#xa5;" horiz-adv-x="1396" d="M25 1509q0 -35 20 -61l381 -545h-131q-35 0 -57.5 -23.5t-22.5 -58.5t22.5 -57.5t57.5 -22.5h244l39 -57v-51h-230q-33 0 -56.5 -22.5t-23.5 -57.5t23.5 -58.5t56.5 -23.5h230v-350q0 -49 35.5 -85t84.5 -36q51 0 87 36t36 85v350h228q35 0 58 23.5t23 58.5t-23.5 57.5 t-57.5 22.5h-228v51l39 57h244q35 0 57.5 22.5t22.5 57.5t-22.5 58.5t-57.5 23.5h-131l381 545q18 27 18 61q0 57 -37 82t-69 25q-57 0 -88 -45l-480 -684l-477 684q-16 23 -39.5 34t-48.5 11q-35 0 -56.5 -12.5t-32.5 -30t-15 -35t-4 -29.5z" />
<glyph unicode="&#xa6;" horiz-adv-x="403" d="M94 109q0 -45 31 -77t76 -32t76.5 31.5t31.5 77.5v540q0 45 -31.5 77t-76.5 32t-76 -32t-31 -77v-540zM94 967q0 -45 31 -77t76 -32t76.5 32t31.5 77v540q0 45 -31.5 77t-76.5 32t-76 -32t-31 -77v-540z" />
<glyph unicode="&#xa7;" horiz-adv-x="1175" d="M55 965q0 -72 36 -132.5t95 -95.5l492 -280q37 -23 58.5 -61t21.5 -85q0 -72 -49.5 -121t-120.5 -49q-43 0 -81 16.5t-65.5 44t-44 65.5t-16.5 81q0 29 -18.5 47.5t-47 18.5t-47 -18.5t-18.5 -47.5q0 -70 26.5 -131t72.5 -107.5t107.5 -73t131 -26.5t131 26.5t107.5 73 t73 108t27 130.5q0 14 -1 26.5t-3 22.5q86 20 142 91t56 163q0 72 -34.5 131.5t-94.5 94.5l-481 278q-41 23 -66.5 62.5t-25.5 89.5q0 72 49 121t121 49q43 0 81 -16.5t65.5 -44t44 -65.5t16.5 -81q0 -29 18 -47.5t47 -18.5t47.5 18.5t18.5 47.5q0 70 -27 131t-73 107 t-107.5 73t-131 27t-131 -27t-107.5 -73t-72.5 -107.5t-26.5 -130.5q0 -14 1 -26.5t3 -24.5q-86 -20 -142.5 -91t-56.5 -163zM238 965q0 35 22.5 57t56.5 22q12 0 21.5 -4l19.5 -8l543 -313q37 -20 37 -68q0 -35 -22.5 -57.5t-57.5 -22.5q-20 0 -37 9l-542 315 q-41 25 -41 70z" />
<glyph unicode="&#xa8;" horiz-adv-x="610" d="M41 1499q0 -49 35 -84t84 -35t84 35t35 84q0 47 -35 82t-84 35t-84 -35t-35 -82zM332 1499q0 -49 34.5 -84t84 -35t84 35t34.5 84q0 47 -34.5 82t-84 35t-84 -35t-34.5 -82z" />
<glyph unicode="&#xa9;" horiz-adv-x="1697" d="M41 809q0 -168 63.5 -315.5t173 -257t257 -173t313.5 -63.5q168 0 315.5 63.5t257 173t173 257t63.5 315.5q0 166 -63.5 313.5t-173 257t-257 173t-315.5 63.5q-166 0 -313.5 -63.5t-257 -173t-173 -257t-63.5 -313.5zM176 809q0 139 53.5 262t144.5 214t213 144.5 t261 53.5t262 -53.5t214 -144.5t144.5 -214t53.5 -262t-53.5 -262t-144.5 -214t-214 -144.5t-262 -53.5t-261 53.5t-213 144.5t-144.5 214t-53.5 262zM403 809q0 -98 28 -188.5t82 -160t137 -111.5t194 -42q92 0 164.5 32t123 78t78 95t27.5 86q0 35 -25.5 53.5t-54.5 18.5 q-23 0 -40 -11.5t-25 -33.5q-12 -35 -32 -68t-49.5 -60.5t-70.5 -44t-96 -16.5q-61 0 -115.5 26.5t-94.5 75t-62.5 117t-22.5 154.5q0 84 22.5 152.5t62.5 116.5t94 75t116 27q55 0 96 -16.5t71.5 -43t50 -60.5t30.5 -67q8 -25 25.5 -35t39.5 -10q29 0 54.5 17.5t25.5 52.5 t-27.5 84t-79 95t-124 79t-162.5 33q-111 0 -194 -42t-137 -111t-82 -159t-28 -188z" />
<glyph unicode="&#xaa;" horiz-adv-x="720" d="M41 797q0 -51 21.5 -89t55.5 -62.5t76 -36t85 -11.5q61 0 121.5 16.5t109.5 69.5v-20q0 -29 19.5 -47.5t46 -18.5t46 18.5t19.5 47.5v458q0 98 -74.5 146.5t-201.5 48.5q-82 0 -135.5 -18.5t-84 -45t-42 -55.5t-11.5 -47q0 -27 20.5 -43t43.5 -16q31 0 47 28l20 34.5 t26.5 30t44.5 20.5t71 7q51 0 98 -21.5t47 -68.5q0 -20 -4 -35.5t-22.5 -27.5t-55.5 -22.5t-102 -16.5q-55 -6 -107.5 -19.5t-91.5 -39t-62.5 -65.5t-23.5 -99zM55 436h584v82h-584v-82zM180 797q0 51 34 77.5t81 39t98 16.5t86 14l31 8v-88q0 -47 -17.5 -77.5t-46 -49 t-64.5 -27t-73 -8.5q-47 0 -88 20t-41 75z" />
<glyph unicode="&#xab;" horiz-adv-x="520" d="M25 809q0 -39 32 -72l260 -260q27 -27 66 -26.5t67.5 26t28.5 66.5t-28 69l-195 197l195 195q29 29 28 69q0 45 -29.5 68.5t-64.5 23.5q-41 0 -68 -26l-260 -260q-32 -33 -32 -70zM467 809q0 -39 33 -72l260 -260q27 -27 65.5 -26.5t67.5 26t29 66.5t-29 69l-195 197 l195 195q29 29 29 69q0 45 -30 68.5t-65 23.5q-41 0 -67 -26l-260 -260q-33 -33 -33 -70z" />
<glyph unicode="&#xac;" horiz-adv-x="888" d="M41 809q0 -41 27.5 -67.5t66.5 -26.5h524v-189q0 -39 27 -66.5t68 -27.5q39 0 66.5 27.5t27.5 66.5v283q0 39 -27.5 66.5t-66.5 27.5h-619q-39 0 -66.5 -27.5t-27.5 -66.5z" />
<glyph unicode="&#xad;" horiz-adv-x="917" d="M41 809q0 -41 27.5 -67.5t66.5 -26.5h647q39 0 67 26.5t28 67.5q0 39 -28 66.5t-67 27.5h-647q-39 0 -66.5 -27.5t-27.5 -66.5z" />
<glyph unicode="&#xae;" horiz-adv-x="1241" d="M41 1038q0 -121 46 -226t124 -183t183.5 -124t226.5 -46q119 0 225 46t184 124t124 183.5t46 225.5q0 119 -46 224.5t-124 184.5t-184.5 124t-224.5 45q-121 0 -226.5 -45t-183.5 -124t-124 -184.5t-46 -224.5zM135 1038.5q0 100.5 38 188.5t104.5 153.5t154.5 103.5 t188.5 38t188.5 -38t153.5 -103.5t103.5 -153.5t38 -188.5t-38 -188.5t-103.5 -154.5t-153.5 -104.5t-188.5 -38t-188.5 38t-154.5 104.5t-104.5 154.5t-38 188.5zM383 772q0 -20 14.5 -33.5t35 -13.5t34.5 13.5t14 33.5v227h183q55 0 82.5 -25.5t31.5 -64.5l13 -141 q2 -20 17 -33q13 -11 30 -10h6q20 2 33.5 17.5t11.5 33.5l-19 172q-4 35 -28.5 58.5t-42.5 29.5l-13 4q0 2 13 7q47 12 77.5 52t30.5 87q0 78 -54 131t-130 53h-274q-33 0 -49.5 -22.5t-16.5 -40.5v-535zM481 1087v197h230q41 0 70.5 -28.5t29.5 -69.5t-29.5 -70t-70.5 -29 h-230z" />
<glyph unicode="&#xaf;" horiz-adv-x="917" d="M41 1522q0 -41 27.5 -68t66.5 -27h647q39 0 67 27t28 68q0 39 -28 66.5t-67 27.5h-647q-39 0 -66.5 -27.5t-27.5 -66.5z" />
<glyph unicode="&#xb0;" horiz-adv-x="729" d="M41 1292.5q0 -67.5 25.5 -126t69.5 -102.5t102.5 -69.5t126 -25.5t126 25.5t102.5 69.5t69.5 102.5t25.5 126t-25.5 126t-69.5 102.5t-102.5 69.5t-126 25.5t-126 -25.5t-102.5 -69.5t-69.5 -102.5t-25.5 -126zM147 1292q0 92 62.5 154.5t155 62.5t155 -62.5t62.5 -154.5 t-62.5 -154.5t-155 -62.5t-155 62.5t-62.5 154.5z" />
<glyph unicode="&#xb1;" horiz-adv-x="892" d="M41 356q0 -41 27.5 -67.5t66.5 -26.5h623q39 0 66.5 26.5t27.5 67.5q0 39 -27.5 67t-66.5 28h-623q-39 0 -66.5 -28t-27.5 -67zM41 950q0 -41 27.5 -67.5t66.5 -26.5h215v-217q0 -39 26.5 -66.5t67.5 -27.5q39 0 67 27.5t28 66.5v217h215q39 0 66.5 26.5t27.5 67.5 q0 39 -27.5 66.5t-66.5 27.5h-215v216q0 39 -28 66.5t-67 27.5q-41 0 -67.5 -28t-26.5 -66v-216h-215q-39 0 -66.5 -27.5t-27.5 -66.5z" />
<glyph unicode="&#xb2;" horiz-adv-x="745" d="M41 772q0 -35 23.5 -58.5t58.5 -23.5h493q23 0 39.5 17.5t16.5 40t-16.5 40t-39.5 17.5h-413q0 29 34.5 73t96.5 83q76 49 143.5 83.5t117.5 72.5t80 87t30 123q0 63 -25 116.5t-68 91.5t-101 59.5t-128 21.5q-57 0 -114.5 -19.5t-103.5 -55.5t-75 -85t-29 -110 q0 -39 20.5 -58.5t43.5 -19.5q25 0 45 20.5t20 59.5q0 37 16.5 65.5t44.5 49t61.5 30.5t70.5 10q74 0 132 -39t58 -129q0 -47 -25.5 -84t-68.5 -69.5t-98 -64.5l-115 -70q-37 -25 -76.5 -59t-72.5 -71.5t-54.5 -75.5t-21.5 -69z" />
<glyph unicode="&#xb3;" horiz-adv-x="765" d="M41 938q0 -41 23.5 -87t68.5 -86t111.5 -65.5t152.5 -25.5q61 0 121 16.5t106 50t73.5 85t27.5 120.5q0 61 -18.5 104.5t-45 70t-57.5 41t-57 18.5q82 27 110.5 82t28.5 108q0 111 -83 178.5t-222 67.5q-90 0 -150.5 -27.5t-97.5 -64.5t-53.5 -76t-16.5 -62 q0 -35 17.5 -53t44.5 -18q16 0 32.5 12t20.5 35q23 84 75 115.5t128 31.5q74 0 128 -39.5t54 -99.5q0 -72 -48 -107.5t-167 -35.5q-23 0 -34 -15.5t-11 -34t11.5 -35t33.5 -16.5q119 0 180.5 -39.5t61.5 -142.5q0 -41 -17.5 -72.5t-46 -52t-64.5 -31t-75 -10.5 q-92 0 -153.5 49.5t-75.5 122.5q-4 25 -21.5 38t-38.5 13q-23 0 -40 -15t-17 -48z" />
<glyph unicode="&#xb4;" horiz-adv-x="380" d="M41 1372q0 -23 14.5 -40t41 -17t48.5 16l162 105q33 20 33 65q0 49 -35 82t-80 33q-41 0 -63 -35l-105 -162q-16 -22 -16 -47z" />
<glyph unicode="&#xb5;" horiz-adv-x="1161" d="M41 -244q0 -41 33 -41q25 0 54.5 28t58 74t55 107.5t47.5 130.5q49 -29 107.5 -42t117.5 -13q74 0 130 15.5t99 38t73 48t48 43.5v-145q0 -45 32 -77t77 -32t76.5 32t31.5 77v1077q0 45 -31.5 77t-76.5 32t-77 -32t-32 -77v-594q0 -66 -20.5 -122t-58 -97t-92 -64.5 t-122.5 -23.5q-41 0 -83 12.5t-75.5 36t-55 58t-21.5 82.5v712q0 45 -31 77t-76 32t-76.5 -32t-31.5 -77v-737q0 -176 -12.5 -279.5t-27.5 -162t-27.5 -87t-12.5 -55.5z" />
<glyph unicode="&#xb6;" horiz-adv-x="1347" d="M41 1153q0 -96 36 -180t99.5 -147.5t147.5 -99.5t180 -36h145v-569q0 -49 35 -85t86 -36q49 0 85 36t36 85v1280h121v-1280q0 -49 34.5 -85t86.5 -36q49 0 84.5 36t35.5 85v1335q0 66 -47 113t-114 47h-588q-96 0 -180 -36t-147.5 -99.5t-99.5 -147.5t-36 -180z" />
<glyph unicode="&#xb7;" horiz-adv-x="378" d="M41 807q0 -59 44 -103.5t105 -44.5q59 0 103.5 44.5t44.5 103.5q0 61 -44 105t-104 44q-61 0 -105 -44t-44 -105z" />
<glyph unicode="&#x2219;" horiz-adv-x="378" d="M41 807q0 -59 44 -103.5t105 -44.5q59 0 103.5 44.5t44.5 103.5q0 61 -44 105t-104 44q-61 0 -105 -44t-44 -105z" />
<glyph unicode="&#xb9;" horiz-adv-x="407" d="M41 1411q0 -23 14.5 -36t34.5 -13h109v-588q0 -29 19.5 -47t46 -18t45 18t18.5 47v778q0 29 -18.5 46.5t-45.5 17.5q-25 0 -38 -11.5t-24.5 -28.5t-22.5 -37.5t-29 -39.5q-16 -16 -35 -23.5t-35.5 -15.5t-27.5 -18.5t-11 -30.5z" />
<glyph unicode="&#xba;" horiz-adv-x="761" d="M41 436h680v82h-680v-82zM41 954q0 -86 25.5 -154.5t71.5 -114.5t107.5 -70.5t135.5 -24.5t135.5 24.5t107.5 70.5t71.5 114.5t25.5 154.5t-25.5 154t-71.5 114t-107.5 70.5t-135.5 24.5t-135.5 -24.5t-107.5 -70.5t-71.5 -114t-25.5 -154zM172 954.5q0 135.5 58.5 196.5 t150.5 61t151.5 -61t59.5 -196.5t-59.5 -198t-151.5 -62.5t-150.5 62.5t-58.5 198z" />
<glyph unicode="&#xbb;" horiz-adv-x="520" d="M41 543q0 -41 28.5 -66.5t67.5 -25.5t66 26l260 260q33 33 33 72q0 37 -33 70l-260 260q-27 27 -68 26q-35 0 -64.5 -23.5t-29.5 -68.5q0 -41 29 -69l194 -195l-194 -197q-29 -28 -29 -69zM483 543q0 -41 29 -66.5t67.5 -25.5t65.5 26l260 260q33 33 33 72q0 37 -33 70 l-260 260q-27 27 -67 26q-35 0 -65 -23.5t-30 -68.5q0 -41 29 -69l195 -195l-195 -197q-29 -28 -29 -69z" />
<glyph unicode="&#xbc;" horiz-adv-x="1667" d="M41 1358q0 -27 18.5 -43.5t42.5 -16.5h138v-737q0 -35 23.5 -58.5t58.5 -23.5q33 0 56 23.5t23 58.5v975q0 35 -23.5 57.5t-55.5 22.5q-31 0 -47.5 -14.5t-31 -36t-27.5 -47t-38 -50.5q-18 -18 -42.5 -28t-45 -20.5t-35 -23.5t-14.5 -38zM227 23q0 -35 23.5 -58.5 t58.5 -23.5q23 0 41.5 12t28.5 31l833 1587q10 20 11 39q0 35 -23.5 58.5t-58.5 23.5q-25 0 -44.5 -12.5t-29.5 -32.5l-831 -1588q-9 -16 -9 -36zM768 385q0 -47 33 -79t80 -32h401v-192q0 -35 23.5 -58.5t56.5 -23.5q35 0 58.5 23.5t23.5 58.5v192h110q29 0 50.5 19.5 t21.5 50.5q0 29 -21.5 49.5t-50.5 20.5h-110v637q0 35 -24.5 59.5t-61.5 24.5q-20 0 -37.5 -9.5t-26.5 -21.5l-503 -653q-23 -31 -23 -66zM940 414l342 454v-454h-342z" />
<glyph unicode="&#xbd;" horiz-adv-x="1802" d="M41 1358q0 -27 18.5 -43.5t42.5 -16.5h138v-737q0 -35 23.5 -58.5t58.5 -23.5q33 0 56 23.5t23 58.5v975q0 35 -23.5 57.5t-55.5 22.5q-31 0 -47.5 -14.5t-31 -36t-27.5 -47t-38 -50.5q-18 -18 -42.5 -28t-45 -20.5t-35 -23.5t-14.5 -38zM227 23q0 -35 23.5 -58.5 t58.5 -23.5q23 0 41.5 12t28.5 31l833 1587q10 20 11 39q0 35 -23.5 58.5t-58.5 23.5q-25 0 -44.5 -12.5t-29.5 -32.5l-831 -1588q-9 -16 -9 -36zM920 102q0 -43 28.5 -72.5t71.5 -29.5h616q29 0 50.5 20.5t21.5 49t-21.5 50t-50.5 21.5h-505q-10 0 -11 13q0 25 43 81 t121 103q94 61 179 105t147.5 91.5t99.5 107.5t37 153q0 80 -29.5 146.5t-84 114.5t-127 74.5t-158.5 26.5q-74 0 -145.5 -24.5t-129 -68.5t-93.5 -106.5t-36 -138.5q0 -49 25.5 -73.5t54.5 -24.5q31 0 56.5 25.5t25.5 72.5t20.5 84t54 61.5t78 38t89.5 13.5t88 -11.5 t76.5 -37t53 -65.5t19.5 -97q0 -59 -31.5 -105.5t-86 -87.5t-122.5 -81l-143 -87q-47 -31 -97 -73.5t-91 -88.5t-67.5 -93.5t-26.5 -86.5z" />
<glyph unicode="&#xbe;" horiz-adv-x="2123" d="M41 770q0 -51 28.5 -109.5t85 -107.5t139.5 -82t191 -33q78 0 152 20.5t132 62.5t93 106.5t35 150.5q0 78 -22.5 131.5t-56.5 87t-73.5 51t-72.5 23.5q51 16 85 43t53 58.5t27.5 67.5t8.5 71q0 68 -26.5 124t-77 96t-120 62.5t-155.5 22.5q-113 0 -189.5 -34t-122.5 -81 t-65.5 -96t-19.5 -78q0 -43 21.5 -64.5t53.5 -21.5q23 0 42.5 14.5t25.5 42.5q27 104 92.5 144.5t161.5 40.5q45 0 86 -13.5t72.5 -37t50 -55t18.5 -68.5q0 -90 -60.5 -134.5t-207.5 -44.5q-29 0 -43 -20t-14 -43t14 -43t43 -20q147 0 224 -50.5t77 -177.5q0 -53 -21.5 -91 t-57.5 -64.5t-82 -39t-93 -12.5q-117 0 -192.5 60.5t-92.5 154.5q-6 31 -28.5 47.5t-46.5 16.5q-27 0 -49.5 -19.5t-22.5 -58.5zM684 23q0 -35 23.5 -58.5t58.5 -23.5q23 0 41 12t29 31l833 1587q10 20 10 39q0 35 -23.5 58.5t-58.5 23.5q-25 0 -44 -12.5t-29 -32.5 l-832 -1588q-8 -16 -8 -36zM1225 385q0 -47 32.5 -79t79.5 -32h402v-192q0 -35 23.5 -58.5t56.5 -23.5q35 0 58.5 23.5t23.5 58.5v192h110q29 0 50.5 19.5t21.5 50.5q0 29 -21.5 49.5t-50.5 20.5h-110v637q0 35 -25 59.5t-61 24.5q-20 0 -38 -9.5t-26 -21.5l-504 -653 q-22 -31 -22 -66zM1397 414l342 454v-454h-342z" />
<glyph unicode="&#xbf;" horiz-adv-x="1110" d="M41 395.5q0 -100.5 42 -179.5t110.5 -132t157.5 -82t186 -29q121 0 219 44t167.5 110t107.5 141.5t38 141.5q0 53 -34 83.5t-74 30.5q-33 0 -61 -20.5t-38 -65.5q-29 -121 -108.5 -198.5t-216.5 -77.5q-57 0 -108.5 18.5t-90.5 51t-62.5 77.5t-23.5 99q0 74 31.5 127 t80 99t103.5 90t103 96t80 120t32 162q0 45 -32 76.5t-77 31.5t-75.5 -31.5t-30.5 -76.5q0 -70 -32 -121t-79 -97t-102 -90t-102.5 -99.5t-79 -127t-31.5 -172zM453 1468.5q0 -61.5 44 -104.5t103 -43q61 0 105.5 43t44.5 104.5t-44 104.5t-106 43q-59 0 -103 -43 t-44 -104.5z" />
<glyph unicode="&#xc0;" horiz-adv-x="1419" d="M25 127q0 -53 39.5 -90t95.5 -37q39 0 71.5 19.5t44.5 56.5l132 409h589l136 -389q16 -43 53 -69.5t80 -26.5q37 0 62.5 14.5t39.5 36t20.5 44t6.5 40.5q0 25 -11 51l-514 1323q-23 61 -66.5 98.5t-109 37.5t-109.5 -37t-67 -99l-487 -1343q-6 -19 -6 -39zM475 702 l211 674l236 -674h-447zM481 1913q0 -20 8.5 -39t24.5 -29l162 -104q23 -16 49 -17q33 0 44 20.5t11 37.5q0 25 -16 47l-105 162q-20 33 -65 32q-31 0 -51.5 -11t-34.5 -27.5t-20.5 -36t-6.5 -35.5z" />
<glyph unicode="&#xc1;" horiz-adv-x="1419" d="M25 127q0 -53 39.5 -90t95.5 -37q39 0 71.5 19.5t44.5 56.5l132 409h589l136 -389q16 -43 53 -69.5t80 -26.5q37 0 62.5 14.5t39.5 36t20.5 44t6.5 40.5q0 25 -11 51l-514 1323q-23 61 -66.5 98.5t-109 37.5t-109.5 -37t-67 -99l-487 -1343q-6 -19 -6 -39zM475 702 l211 674l236 -674h-447zM641 1784q0 -16 11.5 -37t43.5 -21q27 0 49 17l162 104q16 10 24.5 28.5t8.5 39.5q0 16 -6 35.5t-20.5 36t-35 27.5t-51.5 11q-45 0 -65 -32l-105 -162q-16 -22 -16 -47z" />
<glyph unicode="&#xc2;" horiz-adv-x="1419" d="M25 127q0 -53 39.5 -90t95.5 -37q39 0 71.5 19.5t44.5 56.5l132 409h589l136 -389q16 -43 53 -69.5t80 -26.5q37 0 62.5 14.5t39.5 36t20.5 44t6.5 40.5q0 25 -11 51l-514 1323q-23 61 -66.5 98.5t-109 37.5t-109.5 -37t-67 -99l-487 -1343q-6 -19 -6 -39zM475 702 l211 674l236 -674h-447zM502 1776q0 -37 23.5 -45.5t29.5 -8.5q23 0 39 17l113 112l110 -112q16 -16 39 -17q27 0 40 16.5t13 39t-14 37.5l-150 149q-18 18 -38 18q-23 0 -41 -18l-148 -149q-16 -21 -16 -39z" />
<glyph unicode="&#xc3;" horiz-adv-x="1419" d="M25 127q0 -53 39.5 -90t95.5 -37q39 0 71.5 19.5t44.5 56.5l132 409h589l136 -389q16 -43 53 -69.5t80 -26.5q37 0 62.5 14.5t39.5 36t20.5 44t6.5 40.5q0 25 -11 51l-514 1323q-23 61 -66.5 98.5t-109 37.5t-109.5 -37t-67 -99l-487 -1343q-6 -19 -6 -39zM412 1808 q0 -35 26.5 -60.5t61.5 -25.5q23 0 36 11.5t25 25t24.5 21.5t35.5 2l194 -53q18 -6 39 -7q53 0 97 33t44 86q0 35 -24.5 60.5t-61.5 25.5q-23 0 -36 -11t-25 -23.5t-26.5 -20.5t-35.5 -2l-192 51q-10 4 -19 4h-18q-53 0 -99 -32t-46 -85zM475 702l211 674l236 -674h-447z " />
<glyph unicode="&#xc4;" horiz-adv-x="1419" d="M25 127q0 -53 39.5 -90t95.5 -37q39 0 71.5 19.5t44.5 56.5l132 409h589l136 -389q16 -43 53 -69.5t80 -26.5q37 0 62.5 14.5t39.5 36t20.5 44t6.5 40.5q0 25 -11 51l-514 1323q-23 61 -66.5 98.5t-109 37.5t-109.5 -37t-67 -99l-487 -1343q-6 -19 -6 -39zM440 1843 q0 -49 35 -84t84 -35t84 35t35 84t-35 84t-84 35t-84 -35t-35 -84zM475 702l211 674l236 -674h-447zM731 1843q0 -49 35 -84t84 -35t84 35t35 84t-35 84t-84 35t-84 -35t-35 -84z" />
<glyph unicode="&#xc5;" horiz-adv-x="1419" d="M25 127q0 -53 39.5 -90t95.5 -37q39 0 71.5 19.5t44.5 56.5l132 409h589l136 -389q16 -43 53 -69.5t80 -26.5q37 0 62.5 14.5t39.5 36t20.5 44t6.5 40.5q0 25 -11 51l-514 1323q-23 61 -66.5 98.5t-109 37.5t-109.5 -37t-67 -99l-487 -1343q-6 -19 -6 -39zM475 702 l211 674l236 -674h-447zM537 1884.5q0 -67.5 47 -115t114.5 -47.5t114.5 47.5t47 115t-47 114.5t-114.5 47t-114.5 -47t-47 -114.5zM590 1884q0 45 31.5 77t76.5 32t77 -32t32 -77t-32 -76.5t-77 -31.5t-76.5 31.5t-31.5 76.5z" />
<glyph unicode="&#xc6;" horiz-adv-x="2187" d="M25 123q0 -47 35.5 -85t89.5 -38q59 0 92 45l325 453h420v-336q0 -43 14.5 -74t38 -50.5t52 -28.5t57.5 -9h889q45 0 76.5 30.5t31.5 76t-31.5 77t-76.5 31.5h-807v526h739q45 0 77 32t32 75q0 45 -32 76.5t-77 31.5h-739v445h790q45 0 77 31.5t32 76.5t-32 76t-77 31 h-872q-29 0 -65.5 -13.5t-61.5 -48.5l-977 -1366q-20 -28 -20 -65zM721 715l266 372v-372h-266z" />
<glyph unicode="&#xc7;" horiz-adv-x="1482" d="M41 809q0 -158 43 -304.5t128 -261t213 -187t298 -81.5v-108q0 -33 -20.5 -43t-34.5 -10h-80q-23 0 -38 -15.5t-15 -38t15 -39t38 -16.5h80q86 0 123.5 48t37.5 114v108q106 6 193.5 37t153 76t113.5 98.5t79 105.5t45 97t14 72q0 55 -40.5 86t-88.5 31 q-35 0 -65.5 -17.5t-42.5 -58.5q-18 -57 -51 -113.5t-84 -100.5t-120 -72t-159 -28q-102 0 -192 44t-157 125t-105.5 196t-38.5 256t38.5 256t105.5 194.5t157 123.5t192 44q90 0 159 -27.5t120 -71.5t83.5 -99t51.5 -113q12 -41 43 -58.5t65 -17.5q47 0 88 32t41 87 q0 61 -48 145.5t-135 159t-206.5 128t-261.5 53.5q-184 0 -322.5 -70t-229.5 -185.5t-137 -267t-46 -313.5z" />
<glyph unicode="&#xc8;" horiz-adv-x="1347" d="M94 162q0 -37 14.5 -68t37 -51t51 -31.5t59.5 -11.5h944q43 0 75 30.5t32 76t-32 77t-75 31.5h-864v526h797q45 0 75.5 32t30.5 75q0 45 -30.5 76.5t-75.5 31.5h-797v445h848q45 0 75.5 31.5t30.5 76.5t-30.5 76t-75.5 31h-928q-68 0 -115 -47t-47 -113v-1294zM471 1913 q0 -20 8 -39t25 -29l162 -104q23 -16 49 -17q33 0 44 20.5t11 37.5q0 25 -16 47l-105 162q-20 33 -65 32q-31 0 -51.5 -11t-35 -27.5t-20.5 -36t-6 -35.5z" />
<glyph unicode="&#xc9;" horiz-adv-x="1347" d="M94 162q0 -37 14.5 -68t37 -51t51 -31.5t59.5 -11.5h944q43 0 75 30.5t32 76t-32 77t-75 31.5h-864v526h797q45 0 75.5 32t30.5 75q0 45 -30.5 76.5t-75.5 31.5h-797v445h848q45 0 75.5 31.5t30.5 76.5t-30.5 76t-75.5 31h-928q-68 0 -115 -47t-47 -113v-1294zM532 1788 q0 -16 11.5 -36.5t44.5 -20.5q27 0 49 16l162 104q16 10 24 28.5t8 39.5q0 16 -6 35.5t-20 36t-34.5 28t-51.5 11.5q-45 0 -66 -33l-104 -162q-17 -22 -17 -47z" />
<glyph unicode="&#xca;" horiz-adv-x="1347" d="M94 162q0 -37 14.5 -68t37 -51t51 -31.5t59.5 -11.5h944q43 0 75 30.5t32 76t-32 77t-75 31.5h-864v526h797q45 0 75.5 32t30.5 75q0 45 -30.5 76.5t-75.5 31.5h-797v445h848q45 0 75.5 31.5t30.5 76.5t-30.5 76t-75.5 31h-928q-68 0 -115 -47t-47 -113v-1294zM485 1776 q0 -37 23.5 -45.5t30.5 -8.5q23 0 39 17l112 112l111 -112q16 -16 39 -17q27 0 40 16.5t13 39t-14 37.5l-150 149q-18 18 -39 18q-23 0 -41 -18l-147 -149q-17 -21 -17 -39z" />
<glyph unicode="&#xcb;" horiz-adv-x="1347" d="M94 162q0 -37 14.5 -68t37 -51t51 -31.5t59.5 -11.5h944q43 0 75 30.5t32 76t-32 77t-75 31.5h-864v526h797q45 0 75.5 32t30.5 75q0 45 -30.5 76.5t-75.5 31.5h-797v445h848q45 0 75.5 31.5t30.5 76.5t-30.5 76t-75.5 31h-928q-68 0 -115 -47t-47 -113v-1294zM432 1843 q0 -49 35 -84t82 -35q49 0 84 35t35 84t-35 84t-84 35q-47 0 -82 -35t-35 -84zM723 1843q0 -49 35 -84t84 -35q47 0 81.5 35t34.5 84t-34.5 84t-81.5 35q-49 0 -84 -35t-35 -84z" />
<glyph unicode="&#xcc;" horiz-adv-x="432" d="M-4 1911q0 -20 8 -39t25 -29l161 -104q23 -16 50 -17q33 0 44 20.5t11 37.5q0 25 -16 47l-105 162q-20 33 -65 32q-31 0 -51.5 -11t-35 -27.5t-20.5 -36t-6 -35.5zM96 121q0 -49 36 -85t85 -36q51 0 86 36t35 85v1374q0 51 -35 86t-86 35q-49 0 -85 -35t-36 -86v-1374z " />
<glyph unicode="&#xcd;" horiz-adv-x="430" d="M94 121q0 -49 36 -85t85 -36q51 0 86 36t35 85v1374q0 51 -35 86t-86 35q-49 0 -85 -35t-36 -86v-1374zM158 1788q0 -16 11 -36.5t44 -20.5q27 0 49 16l162 104q16 10 24.5 28.5t8.5 39.5q0 16 -6.5 35.5t-20.5 36t-34.5 28t-51.5 11.5q-45 0 -65 -33l-105 -162 q-16 -22 -16 -47z" />
<glyph unicode="&#xce;" horiz-adv-x="430" d="M10 1776q0 -29 18.5 -41.5t34.5 -12.5q25 0 41 17l111 110l111 -110q16 -16 41 -17q29 0 41 21.5t12 34.5q0 20 -17 37l-147 147q-20 20 -40.5 20t-41.5 -20l-147 -147q-17 -16 -17 -39zM94 121q0 -49 36 -85t85 -36q51 0 86 36t35 85v1374q0 51 -35 86t-86 35 q-49 0 -85 -35t-36 -86v-1374z" />
<glyph unicode="&#xcf;" horiz-adv-x="430" d="M-49 1843q0 -49 34.5 -84t84.5 -35q47 0 81.5 35t34.5 84t-34.5 84t-81.5 35q-49 0 -84 -35t-35 -84zM94 121q0 -49 36 -85t85 -36q51 0 86 36t35 85v1374q0 51 -35 86t-86 35q-49 0 -85 -35t-36 -86v-1374zM242 1843q0 -49 34.5 -84t83.5 -35q47 0 83 35t36 84t-35.5 84 t-83.5 35q-49 0 -83.5 -35t-34.5 -84z" />
<glyph unicode="&#xd0;" horiz-adv-x="1648" d="M41 809q0 -43 29.5 -72.5t72.5 -29.5h144v-545q0 -37 14 -68t36.5 -51t51.5 -31.5t60 -11.5h485q121 0 241.5 41t217 136t156 250t59.5 382q0 225 -59.5 379.5t-156 250t-217 136.5t-241.5 41h-485q-68 0 -115 -47t-47 -113v-545h-144q-43 0 -72.5 -29.5t-29.5 -72.5z M528 215v492h205q43 0 73 29.5t30 72.5t-30 72.5t-73 29.5h-205v490h359q121 0 211 -42t149.5 -119t88 -186.5t28.5 -244.5q0 -137 -28.5 -246.5t-88 -186.5t-149.5 -119t-211 -42h-359z" />
<glyph unicode="&#xd1;" horiz-adv-x="1452" d="M94 121q0 -49 36 -85t85 -36q51 0 86 36t35 85v1069l735 -1092q31 -47 70 -72.5t96 -25.5q51 0 86 36t35 85v1374q0 51 -35 86t-86 35t-86 -35t-35 -86v-1077l-733 1100q-33 47 -72 72.5t-96 25.5q-49 0 -85 -35t-36 -86v-1374zM438 1808q0 -35 27 -60.5t61 -25.5 q23 0 36 11.5t25.5 25t25 21.5t34.5 2l195 -53q18 -6 39 -7q53 0 97 33t44 86q0 35 -24.5 60.5t-61.5 25.5q-23 0 -36 -11t-25.5 -23.5t-26.5 -20.5t-35 -2l-192 51q-10 4 -19 4h-18q-53 0 -99.5 -32t-46.5 -85z" />
<glyph unicode="&#xd2;" d="M41 809q0 -170 56.5 -321.5t159.5 -266.5t249.5 -182.5t329 -67.5t329 67.5t250 182.5t159.5 266.5t56 321.5q0 168 -56 319.5t-159.5 266t-250 182.5t-329 68t-329 -68t-249.5 -182.5t-159.5 -266t-56.5 -319.5zM283 809q0 141 43 256t117.5 194.5t175 123.5t217 44 t217 -44t175.5 -123.5t118 -194.5t43 -256t-43 -256t-118 -196t-175.5 -125t-217 -44t-217 44t-175 125t-117.5 196t-43 256zM631 1913q0 -20 8 -39t25 -29l161 -104q23 -16 49 -17q33 0 44.5 20.5t11.5 37.5q0 25 -17 47l-104 162q-20 33 -66 32q-31 0 -51 -11t-34.5 -27.5 t-20.5 -36t-6 -35.5z" />
<glyph unicode="&#xd3;" d="M41 809q0 -170 56.5 -321.5t159.5 -266.5t249.5 -182.5t329 -67.5t329 67.5t250 182.5t159.5 266.5t56 321.5q0 168 -56 319.5t-159.5 266t-250 182.5t-329 68t-329 -68t-249.5 -182.5t-159.5 -266t-56.5 -319.5zM283 809q0 141 43 256t117.5 194.5t175 123.5t217 44 t217 -44t175.5 -123.5t118 -194.5t43 -256t-43 -256t-118 -196t-175.5 -125t-217 -44t-217 44t-175 125t-117.5 196t-43 256zM760 1782q0 -16 11 -37t44 -21q27 0 49 17l162 104q16 10 24.5 28.5t8.5 39.5q0 16 -6 35.5t-20.5 36t-35 27.5t-51.5 11q-45 0 -65 -32l-105 -162 q-16 -22 -16 -47z" />
<glyph unicode="&#xd4;" d="M41 809q0 -170 56.5 -321.5t159.5 -266.5t249.5 -182.5t329 -67.5t329 67.5t250 182.5t159.5 266.5t56 321.5q0 168 -56 319.5t-159.5 266t-250 182.5t-329 68t-329 -68t-249.5 -182.5t-159.5 -266t-56.5 -319.5zM283 809q0 141 43 256t117.5 194.5t175 123.5t217 44 t217 -44t175.5 -123.5t118 -194.5t43 -256t-43 -256t-118 -196t-175.5 -125t-217 -44t-217 44t-175 125t-117.5 196t-43 256zM633 1776q0 -29 18.5 -41.5t34.5 -12.5q25 0 41 17l111 110l110 -110q16 -16 41 -17q29 0 41 21.5t12 34.5q0 20 -16 37l-147 147q-20 20 -41 20 t-41 -20l-148 -147q-16 -16 -16 -39z" />
<glyph unicode="&#xd5;" d="M41 809q0 -170 56.5 -321.5t159.5 -266.5t249.5 -182.5t329 -67.5t329 67.5t250 182.5t159.5 266.5t56 321.5q0 168 -56 319.5t-159.5 266t-250 182.5t-329 68t-329 -68t-249.5 -182.5t-159.5 -266t-56.5 -319.5zM283 809q0 141 43 256t117.5 194.5t175 123.5t217 44 t217 -44t175.5 -123.5t118 -194.5t43 -256t-43 -256t-118 -196t-175.5 -125t-217 -44t-217 44t-175 125t-117.5 196t-43 256zM537 1808q0 -35 26.5 -60.5t61.5 -25.5q23 0 36 11.5t25 25t24.5 21.5t34.5 2l195 -53q18 -6 39 -7q53 0 97 33t44 86q0 35 -24.5 60.5t-61.5 25.5 q-23 0 -36 -11t-25 -23.5t-26.5 -20.5t-35.5 -2l-192 51q-10 4 -19 4h-18q-53 0 -99 -32t-46 -85z" />
<glyph unicode="&#xd6;" d="M41 809q0 -170 56.5 -321.5t159.5 -266.5t249.5 -182.5t329 -67.5t329 67.5t250 182.5t159.5 266.5t56 321.5q0 168 -56 319.5t-159.5 266t-250 182.5t-329 68t-329 -68t-249.5 -182.5t-159.5 -266t-56.5 -319.5zM283 809q0 141 43 256t117.5 194.5t175 123.5t217 44 t217 -44t175.5 -123.5t118 -194.5t43 -256t-43 -256t-118 -196t-175.5 -125t-217 -44t-217 44t-175 125t-117.5 196t-43 256zM571 1843q0 -49 35 -84t84 -35t84 35t35 84t-35 84t-84 35t-84 -35t-35 -84zM862 1843q0 -49 35 -84t84 -35t84 35t35 84t-35 84t-84 35t-84 -35 t-35 -84z" />
<glyph unicode="&#xd7;" horiz-adv-x="708" d="M41 590q0 -45 31.5 -69.5t62.5 -24.5q39 0 68 28l151 152l154 -154q27 -27 65 -26q29 0 47.5 10t28.5 24.5t14.5 31t4.5 28.5q0 39 -27 65l-154 154l152 152q29 29 29 67q0 33 -27 63.5t-68 30.5q-39 0 -67 -28l-152 -152l-151 152q-29 29 -68 28q-43 0 -68.5 -31.5 t-25.5 -62.5q0 -39 29 -67l151 -152l-151 -152q-29 -28 -29 -67z" />
<glyph unicode="&#xd8;" d="M41 809q0 -59 8 -125t27.5 -133.5t51.5 -136t79 -131.5l-115 -121q-27 -31 -26 -68q0 -43 29.5 -68.5t68.5 -25.5q43 0 69 29l109 112q121 -94 245 -131t249 -37q182 0 328.5 68t250 181.5t159.5 265t56 321.5q0 121 -34.5 255t-127.5 263l117 125q27 27 27 68 q0 43 -30 69.5t-66 26.5q-43 0 -70 -31l-111 -115q-123 96 -247.5 135.5t-251.5 39.5q-182 0 -329 -68t-250 -182.5t-159.5 -266t-56.5 -319.5zM283 809q0 141 43 256t117.5 194.5t175 123.5t217.5 44q86 0 173 -27.5t171 -92.5l-809 -852q-53 92 -70.5 184t-17.5 170z M498 305l807 850q51 -92 67.5 -184t16.5 -162q0 -141 -43 -256t-118 -196t-175.5 -125t-216.5 -44q-84 0 -169 27t-169 90z" />
<glyph unicode="&#xd9;" horiz-adv-x="1482" d="M94 539q0 -158 54.5 -266.5t143.5 -175t205.5 -95.5t243.5 -29q125 0 243 29t207 95.5t143.5 175t54.5 266.5v956q0 51 -36 86t-87 35q-49 0 -85 -35t-36 -86v-956q0 -96 -34 -164t-90 -109t-129 -59.5t-150.5 -18.5t-151.5 18.5t-130.5 59.5t-90 108.5t-33.5 164.5v956 q0 51 -35 86t-86 35q-49 0 -85 -35t-36 -86v-956zM512 1913q0 -20 8 -39t25 -29l162 -104q23 -16 49 -17q33 0 44 20.5t11 37.5q0 25 -16 47l-105 162q-20 33 -65 32q-31 0 -51.5 -11t-35 -27.5t-20.5 -36t-6 -35.5z" />
<glyph unicode="&#xda;" horiz-adv-x="1482" d="M94 539q0 -158 54.5 -266.5t143.5 -175t205.5 -95.5t243.5 -29q125 0 243 29t207 95.5t143.5 175t54.5 266.5v956q0 51 -36 86t-87 35q-49 0 -85 -35t-36 -86v-956q0 -96 -34 -164t-90 -109t-129 -59.5t-150.5 -18.5t-151.5 18.5t-130.5 59.5t-90 108.5t-33.5 164.5v956 q0 51 -35 86t-86 35q-49 0 -85 -35t-36 -86v-956zM643 1780q0 -16 11.5 -37t43.5 -21q27 0 50 17l161 104q16 10 24.5 28.5t8.5 39.5q0 16 -6 35.5t-20.5 36t-35 27.5t-51.5 11q-45 0 -65 -32l-105 -162q-16 -22 -16 -47z" />
<glyph unicode="&#xdb;" horiz-adv-x="1482" d="M94 539q0 -158 54.5 -266.5t143.5 -175t205.5 -95.5t243.5 -29q125 0 243 29t207 95.5t143.5 175t54.5 266.5v956q0 51 -36 86t-87 35q-49 0 -85 -35t-36 -86v-956q0 -96 -34 -164t-90 -109t-129 -59.5t-150.5 -18.5t-151.5 18.5t-130.5 59.5t-90 108.5t-33.5 164.5v956 q0 51 -35 86t-86 35q-49 0 -85 -35t-36 -86v-956zM539 1776q0 -29 18 -41.5t35 -12.5q25 0 41 17l110 110l111 -110q16 -16 41 -17q29 0 41 21.5t12 34.5q0 20 -16 37l-148 147q-20 20 -40.5 20t-41.5 -20l-147 -147q-16 -16 -16 -39z" />
<glyph unicode="&#xdc;" horiz-adv-x="1482" d="M94 539q0 -158 54.5 -266.5t143.5 -175t205.5 -95.5t243.5 -29q125 0 243 29t207 95.5t143.5 175t54.5 266.5v956q0 51 -36 86t-87 35q-49 0 -85 -35t-36 -86v-956q0 -96 -34 -164t-90 -109t-129 -59.5t-150.5 -18.5t-151.5 18.5t-130.5 59.5t-90 108.5t-33.5 164.5v956 q0 51 -35 86t-86 35q-49 0 -85 -35t-36 -86v-956zM477 1843q0 -49 35 -84t84 -35t84 35t35 84t-35 84t-84 35t-84 -35t-35 -84zM768 1843q0 -49 35 -84t84 -35t84 35t35 84t-35 84t-84 35t-84 -35t-35 -84z" />
<glyph unicode="&#xdd;" horiz-adv-x="1394" d="M25 1509q0 -35 18 -61l532 -764v-563q0 -49 36 -85t85 -36q51 0 87 36t36 85v563l533 764q18 27 18 61q0 31 -11 51.5t-27.5 33t-35 17.5t-32.5 5q-25 0 -48.5 -11.5t-39.5 -33.5l-480 -684l-477 684q-16 23 -39.5 34t-48.5 11q-43 0 -74.5 -30t-31.5 -77zM641 1782 q0 -16 11.5 -37t43.5 -21q27 0 49 17l162 104q16 10 24.5 28.5t8.5 39.5q0 16 -6 35.5t-20.5 36t-35 27.5t-51.5 11q-45 0 -65 -32l-105 -162q-16 -22 -16 -47z" />
<glyph unicode="&#xde;" horiz-adv-x="1347" d="M94 121q0 -49 36 -85t85 -36q51 0 86 36t35 85v225h508q96 0 180 36t147.5 99.5t99.5 147.5t36 180t-36 180t-99.5 147.5t-147.5 99.5t-180 36h-508v223q0 49 -35 85t-86 36q-49 0 -85 -36t-36 -85v-1374zM336 561v496h481q51 0 96 -19.5t79 -53.5t53.5 -79t19.5 -96 t-19.5 -96t-53.5 -79t-79 -53.5t-96 -19.5h-481z" />
<glyph unicode="&#xdf;" horiz-adv-x="1587" d="M41 1065q0 -41 27.5 -67.5t66.5 -26.5h76v-862q0 -45 30.5 -77t75.5 -32t77 31.5t32 77.5v1241q0 35 19.5 43t31.5 8h311q45 0 76 -31t31 -76q0 -18 -5 -34.5t-20.5 -33t-44 -34.5t-75.5 -39q-92 -41 -141.5 -115.5t-49.5 -177.5q0 -111 55.5 -173t137.5 -96t179 -51.5 t179 -38t137.5 -55t55.5 -104.5q0 -35 -14.5 -66.5t-44.5 -57t-77 -41t-112 -15.5q-143 0 -220 59.5t-112 147.5q-12 31 -34.5 45t-47.5 14q-39 0 -72.5 -29.5t-33.5 -76.5q0 -29 26.5 -84.5t87 -111.5t155.5 -98t234 -42q98 0 188.5 19.5t158 63.5t108.5 114.5t41 172.5 q0 86 -33 143.5t-87 97.5t-123.5 63.5t-141.5 41t-141.5 30.5t-124 32.5t-87 47.5t-32.5 73q0 37 21.5 67.5t68.5 48.5q80 33 130 66t78 73t38 90t10 120q0 47 -17.5 94t-51 86t-84 62.5t-113.5 23.5h-367q-66 0 -115 -23.5t-82.5 -62.5t-51 -86t-17.5 -94v-191h-76 q-39 0 -66.5 -27.5t-27.5 -66.5z" />
<glyph unicode="&#xe0;" horiz-adv-x="1116" d="M41 330q0 -86 35 -147.5t91 -102.5t127 -60.5t140 -19.5q111 0 210 28.5t177 112.5v-32q0 -45 32 -77t77 -32t75.5 31.5t30.5 77.5v763q0 162 -124 245t-332 83q-111 0 -188 -19.5t-129 -52t-82.5 -74.5t-49.5 -85q-10 -27 -10 -45q0 -47 34.5 -74t75.5 -27 q23 0 44.5 11.5t33.5 35.5q14 31 31.5 59.5t46.5 49t74 33t119 12.5q41 0 84 -9t77.5 -27.5t57 -47.5t22.5 -68q0 -33 -7 -59.5t-38 -47t-92 -35.5t-170 -28q-94 -10 -179 -32.5t-150.5 -65.5t-104.5 -109.5t-39 -164.5zM270 330q0 57 26 94t69 60.5t96 35.5t109.5 20.5 t108.5 14.5t91 18l51 15v-146q0 -76 -29.5 -127t-77.5 -81.5t-107.5 -44t-119.5 -13.5q-39 0 -77.5 7t-69.5 24.5t-50.5 47.5t-19.5 75zM428 1479q0 -35 27 -54l129 -84q18 -12 39 -12q10 0 26.5 8.5t16.5 36.5q0 20 -13 39l-84 129q-18 27 -53 27q-12 0 -26.5 -4t-29 -15.5 t-23.5 -28.5t-9 -42z" />
<glyph unicode="&#xe1;" horiz-adv-x="1116" d="M41 330q0 -86 35 -147.5t91 -102.5t127 -60.5t140 -19.5q111 0 210 28.5t177 112.5v-32q0 -45 32 -77t77 -32t75.5 31.5t30.5 77.5v763q0 162 -124 245t-332 83q-111 0 -188 -19.5t-129 -52t-82.5 -74.5t-49.5 -85q-10 -27 -10 -45q0 -47 34.5 -74t75.5 -27 q23 0 44.5 11.5t33.5 35.5q14 31 31.5 59.5t46.5 49t74 33t119 12.5q41 0 84 -9t77.5 -27.5t57 -47.5t22.5 -68q0 -33 -7 -59.5t-38 -47t-92 -35.5t-170 -28q-94 -10 -179 -32.5t-150.5 -65.5t-104.5 -109.5t-39 -164.5zM270 330q0 57 26 94t69 60.5t96 35.5t109.5 20.5 t108.5 14.5t91 18l51 15v-146q0 -76 -29.5 -127t-77.5 -81.5t-107.5 -44t-119.5 -13.5q-39 0 -77.5 7t-69.5 24.5t-50.5 47.5t-19.5 75zM489 1372q0 -29 16.5 -37t26.5 -8q20 0 39 12l129 84q27 18 27 54q0 25 -9 42t-23.5 28.5t-29 15.5t-26.5 4q-35 0 -53 -27l-84 -129 q-13 -19 -13 -39z" />
<glyph unicode="&#xe2;" horiz-adv-x="1116" d="M41 330q0 -86 35 -147.5t91 -102.5t127 -60.5t140 -19.5q111 0 210 28.5t177 112.5v-32q0 -45 32 -77t77 -32t75.5 31.5t30.5 77.5v763q0 162 -124 245t-332 83q-111 0 -188 -19.5t-129 -52t-82.5 -74.5t-49.5 -85q-10 -27 -10 -45q0 -47 34.5 -74t75.5 -27 q23 0 44.5 11.5t33.5 35.5q14 31 31.5 59.5t46.5 49t74 33t119 12.5q41 0 84 -9t77.5 -27.5t57 -47.5t22.5 -68q0 -33 -7 -59.5t-38 -47t-92 -35.5t-170 -28q-94 -10 -179 -32.5t-150.5 -65.5t-104.5 -109.5t-39 -164.5zM270 330q0 57 26 94t69 60.5t96 35.5t109.5 20.5 t108.5 14.5t91 18l51 15v-146q0 -76 -29.5 -127t-77.5 -81.5t-107.5 -44t-119.5 -13.5q-39 0 -77.5 7t-69.5 24.5t-50.5 47.5t-19.5 75zM389 1372q0 -37 23.5 -45t29.5 -8q23 0 39 16l113 113l111 -113q16 -16 38 -16q27 0 40.5 16.5t13.5 39t-15 36.5l-149 150 q-18 18 -39 18q-23 0 -41 -18l-147 -150q-17 -21 -17 -39z" />
<glyph unicode="&#xe3;" horiz-adv-x="1116" d="M41 330q0 -86 35 -147.5t91 -102.5t127 -60.5t140 -19.5q111 0 210 28.5t177 112.5v-32q0 -45 32 -77t77 -32t75.5 31.5t30.5 77.5v763q0 162 -124 245t-332 83q-111 0 -188 -19.5t-129 -52t-82.5 -74.5t-49.5 -85q-10 -27 -10 -45q0 -47 34.5 -74t75.5 -27 q23 0 44.5 11.5t33.5 35.5q14 31 31.5 59.5t46.5 49t74 33t119 12.5q41 0 84 -9t77.5 -27.5t57 -47.5t22.5 -68q0 -33 -7 -59.5t-38 -47t-92 -35.5t-170 -28q-94 -10 -179 -32.5t-150.5 -65.5t-104.5 -109.5t-39 -164.5zM270 330q0 57 26 94t69 60.5t96 35.5t109.5 20.5 t108.5 14.5t91 18l51 15v-146q0 -76 -29.5 -127t-77.5 -81.5t-107.5 -44t-119.5 -13.5q-39 0 -77.5 7t-69.5 24.5t-50.5 47.5t-19.5 75zM287 1405q0 -35 26.5 -60.5t61.5 -25.5q23 0 36 9t24 19.5t24.5 19.5t36.5 9l194 -51q10 -4 19 -4h18q27 0 53.5 8t47 23.5t32.5 37 t12 48.5q0 35 -25.5 60.5t-62.5 25.5q-23 0 -36 -9.5t-25 -19.5t-25.5 -19.5t-35.5 -9.5l-193 52q-10 4 -18 4h-19q-53 0 -99 -32t-46 -85z" />
<glyph unicode="&#xe4;" horiz-adv-x="1116" d="M41 330q0 -86 35 -147.5t91 -102.5t127 -60.5t140 -19.5q111 0 210 28.5t177 112.5v-32q0 -45 32 -77t77 -32t75.5 31.5t30.5 77.5v763q0 162 -124 245t-332 83q-111 0 -188 -19.5t-129 -52t-82.5 -74.5t-49.5 -85q-10 -27 -10 -45q0 -47 34.5 -74t75.5 -27 q23 0 44.5 11.5t33.5 35.5q14 31 31.5 59.5t46.5 49t74 33t119 12.5q41 0 84 -9t77.5 -27.5t57 -47.5t22.5 -68q0 -33 -7 -59.5t-38 -47t-92 -35.5t-170 -28q-94 -10 -179 -32.5t-150.5 -65.5t-104.5 -109.5t-39 -164.5zM270 330q0 57 26 94t69 60.5t96 35.5t109.5 20.5 t108.5 14.5t91 18l51 15v-146q0 -76 -29.5 -127t-77.5 -81.5t-107.5 -44t-119.5 -13.5q-39 0 -77.5 7t-69.5 24.5t-50.5 47.5t-19.5 75zM315 1440q0 -49 35 -84t84 -35t84 35t35 84q0 47 -35 83t-84 36t-84 -36t-35 -83zM606 1440q0 -49 35 -84t84 -35t84 35t35 84 q0 47 -35 83t-84 36t-84 -36t-35 -83z" />
<glyph unicode="&#xe5;" horiz-adv-x="1116" d="M41 330q0 -86 35 -147.5t91 -102.5t127 -60.5t140 -19.5q111 0 210 28.5t177 112.5v-32q0 -45 32 -77t77 -32t75.5 31.5t30.5 77.5v763q0 162 -124 245t-332 83q-111 0 -188 -19.5t-129 -52t-82.5 -74.5t-49.5 -85q-10 -27 -10 -45q0 -47 34.5 -74t75.5 -27 q23 0 44.5 11.5t33.5 35.5q14 31 31.5 59.5t46.5 49t74 33t119 12.5q41 0 84 -9t77.5 -27.5t57 -47.5t22.5 -68q0 -33 -7 -59.5t-38 -47t-92 -35.5t-170 -28q-94 -10 -179 -32.5t-150.5 -65.5t-104.5 -109.5t-39 -164.5zM270 330q0 57 26 94t69 60.5t96 35.5t109.5 20.5 t108.5 14.5t91 18l51 15v-146q0 -76 -29.5 -127t-77.5 -81.5t-107.5 -44t-119.5 -13.5q-39 0 -77.5 7t-69.5 24.5t-50.5 47.5t-19.5 75zM414 1482.5q0 -67.5 47 -114.5t114.5 -47t114.5 47t47 114.5t-47 115t-114.5 47.5t-114.5 -47.5t-47 -115zM467 1483q0 45 31.5 76.5 t77 31.5t77 -31.5t31.5 -76.5t-31.5 -77t-77 -32t-77 32t-31.5 77z" />
<glyph unicode="&#xe6;" horiz-adv-x="1945" d="M41 330q0 -86 35 -147.5t91 -102.5t127 -60.5t140 -19.5q111 0 210 28.5t177 112.5v-32q0 -45 32 -77t77 -32q41 0 71.5 28.5t34.5 67.5q86 -53 165 -74.5t165 -21.5q125 0 217 37t151.5 86t88 98t28.5 74q0 41 -29.5 67.5t-68.5 26.5q-23 0 -43 -10t-37 -35 q-29 -43 -57.5 -74.5t-62 -52t-78.5 -31t-109 -10.5q-102 0 -166.5 44t-100.5 102.5t-49.5 117t-13.5 88.5h748q49 0 85 39t36 115q0 123 -43 219t-118 163t-176.5 101.5t-217.5 34.5q-102 0 -193.5 -32.5t-177.5 -110.5q-49 61 -147.5 102t-251.5 41q-147 0 -237.5 -36 t-139.5 -84t-65.5 -93t-16.5 -63q0 -47 34.5 -74t75.5 -27q23 0 44.5 11.5t33.5 35.5q14 31 31.5 59.5t46.5 49t74 33t119 12.5q41 0 84 -9t77.5 -27.5t57 -47.5t22.5 -68q0 -33 -7 -59.5t-38 -47t-92 -35.5t-170 -28q-94 -10 -179 -32.5t-150.5 -65.5t-104.5 -109.5 t-39 -164.5zM270 330q0 57 26 94t69 60.5t96 35.5t109.5 20.5t108.5 14.5t91 18l51 15v-146q0 -76 -29.5 -127t-77.5 -81.5t-107.5 -44t-119.5 -13.5q-39 0 -77.5 7t-69.5 24.5t-50.5 47.5t-19.5 75zM1034 705q0 4 2 29.5t12.5 60t31 75.5t56 75t89 56.5t129.5 22.5 q88 0 153.5 -26.5t107.5 -70.5t62.5 -101.5t20.5 -120.5h-664z" />
<glyph unicode="&#xe7;" horiz-adv-x="1126" d="M41 592q0 -135 41 -243.5t111.5 -186.5t163 -122t196.5 -50v-70q0 -14 -10.5 -34.5t-44.5 -20.5h-80q-23 0 -38 -15.5t-15 -38t15 -38t38 -15.5h80q80 0 120.5 43t40.5 119v68q123 8 205 49t130 91t68.5 98t20.5 73q0 47 -33.5 72.5t-72.5 25.5q-29 0 -53.5 -14 t-34.5 -49q-10 -33 -34 -63.5t-59.5 -55.5t-83.5 -39t-106 -14q-63 0 -125.5 23.5t-113 74.5t-81 133t-30.5 199t30.5 199.5t81 134t113 75t125.5 23.5q57 0 105.5 -14.5t84 -39t59.5 -55t34 -63.5q10 -35 34.5 -49.5t53.5 -14.5q41 0 74.5 26t33.5 71q0 20 -22.5 72.5 t-76.5 105.5t-146 95t-234 42q-121 0 -224 -44t-179 -124t-119 -191.5t-43 -248.5z" />
<glyph unicode="&#xe8;" horiz-adv-x="1191" d="M41 592q0 -121 38 -231.5t110.5 -193.5t179 -132t241.5 -49q133 0 225.5 36.5t150.5 86t85 98.5t27 74q0 41 -31 67.5t-68 26.5q-23 0 -43 -10.5t-36 -34.5q-29 -43 -57.5 -75t-63.5 -52.5t-80 -30.5t-109 -10q-78 0 -132 25.5t-91 64.5t-58.5 85t-32.5 87t-14 70.5 t-3 33.5h749q49 0 86 39t37 115q0 123 -43 219t-118 163t-176 101.5t-218 34.5q-127 0 -229.5 -48t-175 -130t-111.5 -193.5t-39 -236.5zM281 705q0 4 2 29.5t12 60t30.5 75.5t56.5 75t89 56.5t129 22.5q88 0 153.5 -26.5t107.5 -70.5t62.5 -101.5t20.5 -120.5h-663z M422 1475q0 -35 27 -54l129 -84q18 -12 38 -12q10 0 26.5 8t16.5 37q0 20 -12 39l-84 129q-18 27 -53 27q-12 0 -26.5 -4.5t-29 -15.5t-23.5 -28t-9 -42z" />
<glyph unicode="&#xe9;" horiz-adv-x="1191" d="M41 592q0 -121 38 -231.5t110.5 -193.5t179 -132t241.5 -49q133 0 225.5 36.5t150.5 86t85 98.5t27 74q0 41 -31 67.5t-68 26.5q-23 0 -43 -10.5t-36 -34.5q-29 -43 -57.5 -75t-63.5 -52.5t-80 -30.5t-109 -10q-78 0 -132 25.5t-91 64.5t-58.5 85t-32.5 87t-14 70.5 t-3 33.5h749q49 0 86 39t37 115q0 123 -43 219t-118 162.5t-176 101.5t-218 35q-127 0 -229.5 -48t-175 -130t-111.5 -193.5t-39 -236.5zM281 705q0 4 2 29.5t12 60t30.5 75.5t56.5 75t89 56.5t129 22.5q88 0 153.5 -26.5t107.5 -70.5t62.5 -101.5t20.5 -120.5h-663z M532 1370q0 -29 16.5 -37t26.5 -8q20 0 39 12l129 84q27 18 27 54q0 25 -9 42t-23.5 28t-29 15.5t-26.5 4.5q-35 0 -53 -27l-84 -129q-13 -19 -13 -39z" />
<glyph unicode="&#xea;" horiz-adv-x="1191" d="M41 592q0 -121 38 -231.5t110.5 -193.5t179 -132t241.5 -49q133 0 225.5 36.5t150.5 86t85 98.5t27 74q0 41 -31 67.5t-68 26.5q-23 0 -43 -10.5t-36 -34.5q-29 -43 -57.5 -75t-63.5 -52.5t-80 -30.5t-109 -10q-78 0 -132 25.5t-91 64.5t-58.5 85t-32.5 87t-14 70.5 t-3 33.5h749q49 0 86 39t37 115q0 123 -43 219t-118 163t-176 101.5t-218 34.5q-127 0 -229.5 -48t-175 -130t-111.5 -193.5t-39 -236.5zM281 705q0 4 2 29.5t12 60t30.5 75.5t56.5 75t89 56.5t129 22.5q88 0 153.5 -26.5t107.5 -70.5t62.5 -101.5t20.5 -120.5h-663z M393 1372q0 -37 23.5 -45t29.5 -8q23 0 39 16l113 113l111 -113q16 -16 39 -16q27 0 40 16.5t13 39t-15 36.5l-149 150q-18 18 -39 18q-23 0 -41 -18l-147 -150q-17 -21 -17 -39z" />
<glyph unicode="&#xeb;" horiz-adv-x="1191" d="M41 592q0 -121 38 -231.5t110.5 -193.5t179 -132t241.5 -49q133 0 225.5 36.5t150.5 86t85 98.5t27 74q0 41 -31 67.5t-68 26.5q-23 0 -43 -10.5t-36 -34.5q-29 -43 -57.5 -75t-63.5 -52.5t-80 -30.5t-109 -10q-78 0 -132 25.5t-91 64.5t-58.5 85t-32.5 87t-14 70.5 t-3 33.5h749q49 0 86 39t37 115q0 123 -43 219t-118 162.5t-176 101.5t-218 35q-127 0 -229.5 -48t-175 -130t-111.5 -193.5t-39 -236.5zM281 705q0 4 2 29.5t12 60t30.5 75.5t56.5 75t89 56.5t129 22.5q88 0 153.5 -26.5t107.5 -70.5t62.5 -101.5t20.5 -120.5h-663z M342 1440q0 -49 35 -84t84 -35t84 35t35 84q0 47 -35 83t-84 36t-84 -36t-35 -83zM633 1440q0 -49 34.5 -84t84 -35t84 35t34.5 84q0 47 -34.5 83t-84 36t-84 -36t-34.5 -83z" />
<glyph unicode="&#xec;" horiz-adv-x="376" d="M4 1475q0 -35 27 -54l129 -84q18 -12 39 -12q10 0 26.5 8t16.5 37q0 20 -13 39l-84 129q-18 27 -53 27q-12 0 -26.5 -4.5t-28.5 -15.5t-23.5 -28t-9.5 -42zM80 109q0 -45 31.5 -77t76.5 -32t77 31.5t32 77.5v968q0 45 -32 77t-77 32t-76.5 -32t-31.5 -77v-968z" />
<glyph unicode="&#xed;" horiz-adv-x="376" d="M80 109q0 -45 31.5 -77t76.5 -32t77 31.5t32 77.5v968q0 45 -32 77t-77 32t-76.5 -32t-31.5 -77v-968zM135 1370q0 -29 16.5 -37t26.5 -8q20 0 39 12l129 84q27 18 27 54q0 25 -9.5 42t-23.5 28t-28.5 15.5t-26.5 4.5q-35 0 -54 -27l-84 -129q-12 -19 -12 -39z" />
<glyph unicode="&#xee;" horiz-adv-x="378" d="M-16 1372q0 -37 23.5 -45t29.5 -8q23 0 39 16l112 113l111 -113q16 -16 39 -16q27 0 40 16.5t13 39t-14 36.5l-150 150q-18 18 -39 18q-23 0 -41 -18l-147 -150q-16 -21 -16 -39zM82 109q0 -45 31.5 -77t77 -32t77 31.5t31.5 77.5v968q0 45 -31.5 77t-77 32t-77 -32 t-31.5 -77v-968z" />
<glyph unicode="&#xef;" horiz-adv-x="376" d="M-76 1440q0 -49 35 -84t84 -35t84 35t35 84q0 47 -35 83t-84 36t-84 -36t-35 -83zM80 109q0 -45 31.5 -77t76.5 -32t77 31.5t32 77.5v968q0 45 -32 77t-77 32t-76.5 -32t-31.5 -77v-968zM215 1440q0 -49 35 -84t84 -35t84 35t35 84q0 47 -35 83t-84 36t-84 -36t-35 -83z " />
<glyph unicode="&#xf0;" horiz-adv-x="1230" d="M41 1542q0 -37 25.5 -62.5t62.5 -25.5q90 0 197.5 -6t212.5 -41l-115 -115h125l76 76q66 -33 122 -84t101 -125q-104 41 -223 41q-121 0 -224.5 -41t-179.5 -118.5t-119 -190.5t-43 -258.5t43 -258t119 -189t179.5 -117.5t224 -41t224 41t179.5 117.5t119 189t43 258.5 q0 199 -34 349.5t-91 261t-135 184t-166 120.5l123 123h-127l-82 -82q-141 55 -285.5 68.5t-263.5 13.5q-37 0 -62.5 -25.5t-25.5 -62.5zM274 592q0 113 27 194.5t73 134t110.5 78t140 25.5t140 -25.5t111 -78t73 -134t26.5 -194.5t-26.5 -194t-73 -133t-111 -77.5 t-140 -25.5t-140 25.5t-110.5 77.5t-73 133t-27 194z" />
<glyph unicode="&#xf1;" horiz-adv-x="1120" d="M80 109q0 -45 31.5 -77t76.5 -32t76 31.5t31 77.5v593q0 66 20.5 122.5t58.5 97.5t93 64.5t123 23.5q41 0 83 -12.5t75.5 -36t55 -59.5t21.5 -81v-712q0 -45 31 -77t76 -32t76.5 31.5t31.5 77.5v737q0 84 -32.5 147.5t-88 106.5t-126 64.5t-146.5 21.5q-74 0 -130 -15.5 t-99 -38t-73 -48.5l-50 -44v37q0 45 -31 77t-76 32t-76.5 -32t-31.5 -77v-968zM291 1405q0 -35 26.5 -60.5t61.5 -25.5q23 0 36 9t24.5 19.5t24.5 19.5t36 9l194 -51q10 -4 19 -4h18q27 0 53.5 8t47 23.5t33 37t12.5 48.5q0 35 -26 60.5t-63 25.5q-23 0 -36 -9.5t-25 -19.5 t-25.5 -19.5t-35.5 -9.5l-193 52q-10 4 -18 4h-19q-53 0 -99 -32t-46 -85z" />
<glyph unicode="&#xf2;" horiz-adv-x="1212" d="M41 591.5q0 -145.5 43 -258t119 -189t179 -117.5t224 -41t224.5 41t179 117.5t118.5 189t43 258t-43 258.5t-118.5 190.5t-179 118.5t-224.5 41t-224 -41t-179 -118.5t-119 -190.5t-43 -258.5zM256 592q0 113 26.5 194.5t72.5 134t110.5 78t140.5 25.5t140.5 -25.5 t110.5 -78t72.5 -134t26.5 -194.5t-26.5 -194t-72.5 -133t-110.5 -77.5t-140.5 -25.5t-140.5 25.5t-110.5 77.5t-72.5 133t-26.5 194zM418 1475q0 -35 26 -54l129 -84q18 -12 39 -12q10 0 26.5 8t16.5 37q0 20 -12 39l-84 129q-18 27 -53 27q-12 0 -26.5 -4.5t-29 -15.5 t-23.5 -28t-9 -42z" />
<glyph unicode="&#xf3;" horiz-adv-x="1212" d="M41 591.5q0 -145.5 43 -258t119 -189t179 -117.5t224 -41t224.5 41t179 117.5t118.5 189t43 258t-43 258.5t-118.5 190.5t-179 118.5t-224.5 41t-224 -41t-179 -118.5t-119 -190.5t-43 -258.5zM256 592q0 113 26.5 194.5t72.5 134t110.5 78t140.5 25.5t140.5 -25.5 t110.5 -78t72.5 -134t26.5 -194.5t-26.5 -194t-72.5 -133t-110.5 -77.5t-140.5 -25.5t-140.5 25.5t-110.5 77.5t-72.5 133t-26.5 194zM551 1366q0 -29 16.5 -37t26.5 -8q20 0 39 12l129 84q27 18 26 53q0 25 -9 42.5t-23.5 28.5t-28.5 15.5t-27 4.5q-35 0 -53 -27l-84 -129 q-12 -19 -12 -39z" />
<glyph unicode="&#xf4;" horiz-adv-x="1212" d="M41 591.5q0 -145.5 43 -258t119 -189t179 -117.5t224 -41t224.5 41t179 117.5t118.5 189t43 258t-43 258.5t-118.5 190.5t-179 118.5t-224.5 41t-224 -41t-179 -118.5t-119 -190.5t-43 -258.5zM256 592q0 113 26.5 194.5t72.5 134t110.5 78t140.5 25.5t140.5 -25.5 t110.5 -78t72.5 -134t26.5 -194.5t-26.5 -194t-72.5 -133t-110.5 -77.5t-140.5 -25.5t-140.5 25.5t-110.5 77.5t-72.5 133t-26.5 194zM403 1372q0 -37 24 -45t30 -8q23 0 39 16l112 113l111 -113q16 -16 39 -16q27 0 40 16.5t13 39t-14 36.5l-150 150q-18 18 -39 18 q-23 0 -41 -18l-147 -150q-17 -21 -17 -39z" />
<glyph unicode="&#xf5;" horiz-adv-x="1212" d="M41 591.5q0 -145.5 43 -258t119 -189t179 -117.5t224 -41t224.5 41t179 117.5t118.5 189t43 258t-43 258.5t-118.5 190.5t-179 118.5t-224.5 41t-224 -41t-179 -118.5t-119 -190.5t-43 -258.5zM256 592q0 113 26.5 194.5t72.5 134t110.5 78t140.5 25.5t140.5 -25.5 t110.5 -78t72.5 -134t26.5 -194.5t-26.5 -194t-72.5 -133t-110.5 -77.5t-140.5 -25.5t-140.5 25.5t-110.5 77.5t-72.5 133t-26.5 194zM309 1405q0 -35 26.5 -60.5t61.5 -25.5q20 0 33.5 9t24 20.5t20.5 20.5t27 9q10 0 16 -2l193 -51q20 -4 34 -4q27 0 53.5 8t47 23.5t34 37 t13.5 48.5q0 35 -25.5 60.5t-60.5 25.5q-23 0 -35 -9.5t-23.5 -20.5l-21.5 -20.5t-27 -9.5q-10 0 -16 2l-195 52q-10 4 -18 4h-18q-53 0 -98.5 -32t-45.5 -85z" />
<glyph unicode="&#xf6;" horiz-adv-x="1212" d="M41 591.5q0 -145.5 43 -258t119 -189t179 -117.5t224 -41t224.5 41t179 117.5t118.5 189t43 258t-43 258.5t-118.5 190.5t-179 118.5t-224.5 41t-224 -41t-179 -118.5t-119 -190.5t-43 -258.5zM256 592q0 113 26.5 194.5t72.5 134t110.5 78t140.5 25.5t140.5 -25.5 t110.5 -78t72.5 -134t26.5 -194.5t-26.5 -194t-72.5 -133t-110.5 -77.5t-140.5 -25.5t-140.5 25.5t-110.5 77.5t-72.5 133t-26.5 194zM344 1440q0 -49 35 -84t84 -35t84 35t35 84q0 47 -35 83t-84 36t-84 -36t-35 -83zM637 1440q0 -49 35 -84t82 -35q49 0 83.5 35t34.5 84 q0 47 -34.5 83t-83.5 36q-47 0 -82 -36t-35 -83z" />
<glyph unicode="&#xf8;" horiz-adv-x="1224" d="M41 63q0 -29 21.5 -47t48.5 -18q29 0 47 20l88 93q90 -70 182 -97.5t184 -27.5q121 0 224.5 41t179.5 117.5t119 189t43 258.5q0 90 -21.5 187.5t-87.5 195.5l96 98q18 20 19 47q0 33 -23.5 50.5t-46.5 17.5q-27 0 -47 -21l-88 -92q-90 70 -181 97.5t-186 27.5 q-121 0 -224 -41t-179 -118.5t-119 -190.5t-43 -258q0 -92 21.5 -188.5t87.5 -192.5l-95 -100q-20 -21 -20 -48zM262 592q0 113 26.5 194.5t73 134t111 78t139.5 25.5q72 0 126.5 -19.5t109.5 -66.5l-547 -573q-12 31 -20.5 64.5t-12.5 65t-5 57.5t-1 40zM377 248l547 573 q27 -61 33 -122.5t6 -106.5q0 -113 -27 -194t-73 -133t-110.5 -77.5t-140.5 -25.5q-74 0 -127 19.5t-108 66.5z" />
<glyph unicode="&#xf9;" horiz-adv-x="1120" d="M80 340q0 -84 32.5 -147.5t88 -106.5t126 -64.5t146.5 -21.5q74 0 130 15.5t99 38t73 47.5l50 44v-36q0 -45 31 -77t76 -32t76.5 31.5t31.5 77.5v968q0 45 -31.5 77t-76.5 32t-76 -32t-31 -77v-594q0 -66 -20.5 -122t-58 -97t-93 -64.5t-123.5 -23.5q-41 0 -82.5 12.5 t-75.5 36t-55.5 58t-21.5 82.5v712q0 45 -31 77t-76 32t-76.5 -32t-31.5 -77v-737zM377 1475q0 -35 26 -54l129 -84q18 -12 39 -12q10 0 26.5 8t16.5 37q0 20 -12 39l-84 129q-18 27 -53 27q-12 0 -26.5 -4.5t-29 -15.5t-23.5 -28t-9 -42z" />
<glyph unicode="&#xfa;" horiz-adv-x="1120" d="M80 340q0 -84 32.5 -147.5t88 -106.5t126 -64.5t146.5 -21.5q74 0 130 15.5t99 38t73 47.5l50 44v-36q0 -45 31 -77t76 -32t76.5 31.5t31.5 77.5v968q0 45 -31.5 77t-76.5 32t-76 -32t-31 -77v-594q0 -66 -20.5 -122t-58 -97t-93 -64.5t-123.5 -23.5q-41 0 -82.5 12.5 t-75.5 36t-55.5 58t-21.5 82.5v712q0 45 -31 77t-76 32t-76.5 -32t-31.5 -77v-737zM492 1368q0 -29 16 -37t27 -8q20 0 38 12l129 84q27 18 27 54q0 25 -9 42t-23.5 28t-29 15.5t-26.5 4.5q-35 0 -53 -27l-84 -129q-12 -19 -12 -39z" />
<glyph unicode="&#xfb;" horiz-adv-x="1120" d="M80 340q0 -84 32.5 -147.5t88 -106.5t126 -64.5t146.5 -21.5q74 0 130 15.5t99 38t73 47.5l50 44v-36q0 -45 31 -77t76 -32t76.5 31.5t31.5 77.5v968q0 45 -31.5 77t-76.5 32t-76 -32t-31 -77v-594q0 -66 -20.5 -122t-58 -97t-93 -64.5t-123.5 -23.5q-41 0 -82.5 12.5 t-75.5 36t-55.5 58t-21.5 82.5v712q0 45 -31 77t-76 32t-76.5 -32t-31.5 -77v-737zM358 1372q0 -37 24 -45t30 -8q23 0 39 16l112 113l111 -113q16 -16 39 -16q27 0 40 16.5t13 39t-14 36.5l-150 150q-18 18 -39 18q-23 0 -41 -18l-147 -150q-17 -21 -17 -39z" />
<glyph unicode="&#xfc;" horiz-adv-x="1120" d="M80 340q0 -84 32.5 -147.5t88 -106.5t126 -64.5t146.5 -21.5q74 0 130 15.5t99 38t73 47.5l50 44v-36q0 -45 31 -77t76 -32t76.5 31.5t31.5 77.5v968q0 45 -31.5 77t-76.5 32t-76 -32t-31 -77v-594q0 -66 -20.5 -122t-58 -97t-93 -64.5t-123.5 -23.5q-41 0 -82.5 12.5 t-75.5 36t-55.5 58t-21.5 82.5v712q0 45 -31 77t-76 32t-76.5 -32t-31.5 -77v-737zM297 1440q0 -49 35 -84t84 -35q47 0 83 35t36 84q0 47 -36 83t-83 36q-49 0 -84 -36t-35 -83zM588 1440q0 -49 34.5 -84t84 -35t84 35t34.5 84q0 47 -34.5 83t-84 36t-84 -36t-34.5 -83z " />
<glyph unicode="&#xfd;" horiz-adv-x="1150" d="M27 1075q0 -20 10 -45l471 -1012l-51 -143q-14 -41 -32.5 -62.5t-39 -30.5t-42 -11t-40.5 -2h-63q-41 0 -69 -29t-28 -70t28 -68.5t69 -27.5h98q76 0 128 22.5t86 57.5t55.5 79t37.5 85l471 1212q4 10 6 20.5t2 20.5q0 59 -34.5 87t-71.5 28t-66.5 -23.5t-44.5 -60.5 l-311 -846l-356 856q-14 35 -44 54.5t-65 19.5q-29 0 -48.5 -11.5t-31.5 -28t-18 -36t-6 -35.5zM541 1378q0 -16 11 -36.5t44 -20.5q27 0 49 16l162 105q16 10 24.5 28.5t8.5 38.5q0 16 -6.5 36t-20.5 36t-34.5 27.5t-51.5 11.5q-45 0 -65 -33l-105 -162q-16 -22 -16 -47z " />
<glyph unicode="&#xfe;" horiz-adv-x="1185" d="M94 -324q0 -45 32 -76.5t77 -31.5t75.5 31.5t30.5 76.5v480l55 -53q30 -28 69.5 -50t94 -37.5t127.5 -15.5q111 0 201 43t154.5 122t99.5 187.5t35 239.5t-39 240.5t-105.5 188.5t-155.5 122t-190 43q-61 0 -108 -6t-86 -21.5t-75 -40t-77 -59.5v448q0 45 -30.5 77 t-75.5 32t-77 -32t-32 -77v-1831zM297 592q0 82 21.5 156.5t62.5 133t101.5 93.5t138.5 35q76 0 136 -35t102 -93.5t63.5 -133t21.5 -156.5q0 -80 -21.5 -156t-63.5 -133t-102.5 -92t-135.5 -35q-78 0 -138.5 35t-101.5 92t-62.5 133t-21.5 156z" />
<glyph unicode="&#xff;" horiz-adv-x="1150" d="M27 1075q0 -20 10 -45l471 -1012l-51 -143q-14 -41 -32.5 -62.5t-39 -30.5t-42 -11t-40.5 -2h-63q-41 0 -69 -29t-28 -70t28 -68.5t69 -27.5h98q76 0 128 22.5t86 57.5t55.5 79t37.5 85l471 1212q4 10 6 20.5t2 20.5q0 59 -34.5 87t-71.5 28t-66.5 -23.5t-44.5 -60.5 l-311 -846l-356 856q-14 35 -44 54.5t-65 19.5q-29 0 -48.5 -11.5t-31.5 -28t-18 -36t-6 -35.5zM330 1440q0 -49 34.5 -84t81.5 -35q49 0 84 35t35 84q0 47 -34.5 83t-84.5 36q-47 0 -81.5 -36t-34.5 -83zM621 1440q0 -49 34.5 -84t83.5 -35q47 0 82 35t35 84q0 47 -35 83 t-82 36q-49 0 -83.5 -36t-34.5 -83z" />
<glyph unicode="&#x152;" horiz-adv-x="2641" d="M41 807q0 -168 56.5 -319.5t159.5 -265t249.5 -181.5t329.5 -68q150 0 288 50.5t265 171.5v-33q0 -70 48 -116t113 -46h942q45 0 77 30.5t32 76t-32 77t-77 31.5h-862v526h795q45 0 76.5 31t31.5 76t-31.5 76.5t-76.5 31.5h-795v445h846q45 0 77 31.5t32 76.5t-32 76 t-77 31h-926q-37 0 -67.5 -14.5t-51 -37t-31.5 -51t-11 -59.5v-33q-233 221 -553 221q-182 0 -329 -67.5t-250 -181t-159.5 -266t-56.5 -320.5zM283 807q0 141 43 256t117.5 195.5t175 124.5t217 44t217 -44t175.5 -124.5t118 -195.5t43 -256t-43 -256t-118 -195 t-175.5 -124t-217 -44t-217 44t-175 124t-117.5 195t-43 256z" />
<glyph unicode="&#x153;" horiz-adv-x="2107" d="M41 591.5q0 -145.5 43 -258t119 -189t179 -117.5t224 -41q152 0 261.5 54t201.5 177q90 -121 200.5 -176t258.5 -55q127 0 219 36.5t151.5 86t87 98.5t27.5 74q0 41 -29.5 67.5t-68.5 26.5q-23 0 -43.5 -10.5t-36.5 -34.5q-29 -43 -57.5 -75t-62.5 -52.5t-79 -30.5 t-108 -10q-102 0 -167 45t-100.5 106.5t-48 123t-12.5 91.5h744q51 0 86.5 39t35.5 115q0 123 -43 219t-117.5 162.5t-176 101.5t-218.5 35q-133 0 -245.5 -55t-198.5 -174q-90 121 -199.5 175t-261.5 54q-121 0 -224 -41t-179 -118.5t-119 -190.5t-43 -258.5zM256 592 q0 113 26.5 194.5t72.5 134t110.5 78t140.5 25.5t140.5 -25.5t110.5 -78t72.5 -134t26.5 -194.5t-26.5 -194t-72.5 -133t-110.5 -77.5t-140.5 -25.5t-140.5 25.5t-110.5 77.5t-72.5 133t-26.5 194zM1196 705q0 4 2 29.5t12.5 60t31 75.5t56 75t89 56.5t129.5 22.5 q88 0 153.5 -26.5t107.5 -70.5t62.5 -101.5t20.5 -120.5h-664z" />
<glyph unicode="&#x178;" horiz-adv-x="1394" d="M25 1509q0 -35 18 -61l532 -764v-563q0 -49 36 -85t85 -36q51 0 87 36t36 85v563l533 764q18 27 18 61q0 31 -11 51.5t-27.5 33t-35 17.5t-32.5 5q-25 0 -48.5 -11.5t-39.5 -33.5l-480 -684l-477 684q-16 23 -39.5 34t-48.5 11q-43 0 -74.5 -30t-31.5 -77zM440 1843 q0 -49 35 -84t84 -35t84 35t35 84t-35 84t-84 35t-84 -35t-35 -84zM731 1843q0 -49 35 -84t84 -35t84 35t35 84t-35 84t-84 35t-84 -35t-35 -84z" />
<glyph unicode="&#x2c6;" horiz-adv-x="491" d="M41 1438q0 -29 18.5 -41.5t34.5 -12.5q25 0 41 17l111 110l110 -110q16 -16 41 -17q29 0 41.5 21.5t12.5 34.5q0 20 -17 37l-147 147q-20 20 -41 20.5t-41 -20.5l-148 -147q-16 -16 -16 -39z" />
<glyph unicode="&#x2dc;" horiz-adv-x="813" d="M41 1468q0 -45 32.5 -76.5t78.5 -31.5q29 0 45 12t29 27l26 26q12 12 35 13q4 0 16 -4l242 -66q25 -6 47 -6q33 0 65.5 10t58 29.5t41 47.5t15.5 60q0 45 -31.5 76t-76.5 31q-27 0 -43.5 -11.5t-29.5 -25.5t-27.5 -25.5t-35.5 -11.5h-10q-4 0 -8 2l-242 66q-25 6 -47 6 q-35 0 -66.5 -10.5t-57 -30t-41 -47t-15.5 -60.5z" />
<glyph unicode="&#x2013;" horiz-adv-x="1105" d="M41 809q0 -41 27.5 -67.5t66.5 -26.5h836q39 0 66.5 26.5t27.5 67.5q0 39 -27.5 66.5t-66.5 27.5h-836q-39 0 -66.5 -27.5t-27.5 -66.5z" />
<glyph unicode="&#x2014;" horiz-adv-x="2129" d="M41 809q0 -41 27.5 -67.5t66.5 -26.5h1860q39 0 66.5 26.5t27.5 67.5q0 39 -27.5 66.5t-66.5 27.5h-1860q-39 0 -66.5 -27.5t-27.5 -66.5z" />
<glyph unicode="&#x2018;" horiz-adv-x="380" d="M41 1456q0 -16 6 -35.5t20.5 -36t35 -27.5t51.5 -11q45 0 65 32l105 162q16 23 16 47q0 16 -11.5 37t-43.5 21q-27 0 -49 -17l-162 -104q-16 -10 -24.5 -29t-8.5 -39z" />
<glyph unicode="&#x2019;" horiz-adv-x="380" d="M41 1403q0 -16 11 -36.5t44 -20.5q27 0 49 16l162 104q16 10 24.5 28.5t8.5 39.5q0 16 -6 35.5t-20.5 36t-35 28t-51.5 11.5q-45 0 -65 -33l-105 -162q-16 -22 -16 -47z" />
<glyph unicode="&#x201a;" horiz-adv-x="389" d="M41 147q0 -59 44 -103t105 -44q-10 -35 -28.5 -58.5t-44.5 -52.5q-14 -16 -15 -36q0 -25 19.5 -44.5t46.5 -19.5q25 0 43 21q66 68 101.5 149.5t35.5 159.5q0 47 -14.5 80.5t-37 55t-50 32t-53.5 10.5q-61 0 -106.5 -43.5t-45.5 -106.5z" />
<glyph unicode="&#x201c;" horiz-adv-x="708" d="M41 1456q0 -16 6 -35.5t20.5 -36t35 -27.5t51.5 -11q45 0 65 32l105 162q16 23 16 47q0 16 -11.5 37t-43.5 21q-27 0 -49 -17l-162 -104q-16 -10 -24.5 -29t-8.5 -39zM369 1456q0 -16 6 -35.5t20.5 -36t35 -27.5t50.5 -11q45 0 66 32l104 162q16 23 17 47q0 16 -11.5 37 t-44.5 21q-27 0 -49 -17l-162 -104q-16 -10 -24 -29t-8 -39z" />
<glyph unicode="&#x201d;" horiz-adv-x="708" d="M41 1403q0 -16 11 -36.5t44 -20.5q27 0 49 16l162 104q16 10 24.5 28.5t8.5 39.5q0 16 -6 35.5t-20.5 36t-35 28t-51.5 11.5q-45 0 -65 -33l-105 -162q-16 -22 -16 -47zM369 1403q0 -16 11 -36.5t44 -20.5q27 0 49 16l162 104q16 10 24.5 28.5t8.5 39.5q0 16 -6.5 35.5 t-20.5 36t-34.5 28t-51.5 11.5q-45 0 -66 -33l-104 -162q-16 -22 -16 -47z" />
<glyph unicode="&#x201e;" horiz-adv-x="389" d="M41 147q0 -59 44 -103t105 -44q-10 -35 -28.5 -58.5t-44.5 -52.5q-14 -16 -15 -36q0 -25 19.5 -44.5t46.5 -19.5q25 0 43 21q66 68 101.5 149.5t35.5 159.5q0 47 -14.5 80.5t-37 55t-50 32t-53.5 10.5q-61 0 -106.5 -43.5t-45.5 -106.5zM430 147q0 -59 44 -103t106 -44 q-10 -35 -29 -58.5t-45 -52.5q-14 -16 -14 -36q0 -25 19 -44.5t46 -19.5q25 0 43 21q66 68 101.5 149.5t35.5 159.5q0 47 -14 80.5t-36.5 55t-50.5 32t-54 10.5q-61 0 -106.5 -43.5t-45.5 -106.5z" />
<glyph unicode="&#x2022;" horiz-adv-x="555" d="M41 809q0 -49 18.5 -92t51 -76t75.5 -51.5t92.5 -18.5t91.5 18.5t74.5 51.5t51 76t18.5 92t-18.5 92t-51 75t-74.5 51.5t-91.5 19.5t-92.5 -19.5t-75.5 -51.5t-51 -75t-18.5 -92z" />
<glyph unicode="&#x2026;" horiz-adv-x="1079" d="M41 147q0 -59 44 -103t105 -44q59 0 103.5 44t44.5 103q0 61 -44 105.5t-104 44.5q-61 0 -105 -44.5t-44 -105.5zM391 147q0 -59 44 -103t106 -44q59 0 103 44t44 103q0 61 -44 105.5t-103 44.5q-61 0 -105.5 -44.5t-44.5 -105.5zM741 147q0 -59 44 -103t106 -44 q59 0 103 44t44 103q0 61 -44 105.5t-103 44.5q-61 0 -105.5 -44.5t-44.5 -105.5z" />
<glyph unicode="&#x2039;" horiz-adv-x="520" d="M25 809q0 -39 32 -72l260 -260q27 -27 66 -26.5t67.5 26t28.5 66.5t-28 69l-195 197l195 195q29 29 28 69q0 45 -29.5 68.5t-64.5 23.5q-41 0 -68 -26l-260 -260q-32 -33 -32 -70z" />
<glyph unicode="&#x203a;" horiz-adv-x="520" d="M41 543q0 -41 28.5 -66.5t67.5 -25.5t66 26l260 260q33 33 33 72q0 37 -33 70l-260 260q-27 27 -68 26q-35 0 -64.5 -23.5t-29.5 -68.5q0 -41 29 -69l194 -195l-194 -197q-29 -28 -29 -69z" />
<glyph unicode="&#x2122;" horiz-adv-x="2322" d="M27 1538q0 -35 22.5 -57.5t54.5 -22.5h281v-938q0 -37 26.5 -63.5t63.5 -26.5t62.5 26.5t25.5 63.5v938h281q33 0 56.5 22.5t23.5 57.5q0 33 -23.5 55.5t-56.5 22.5h-740q-33 0 -55 -22.5t-22 -55.5zM1102 510q0 -33 23.5 -56.5t56 -23.5t56.5 23.5t24 56.5v772l292 -764 q16 -39 43 -63.5t68 -24.5q43 0 69.5 24.5t43.5 63.5l293 764v-772q0 -33 23.5 -56.5t56 -23.5t55 23.5t22.5 56.5v995q0 47 -31.5 79t-76.5 32q-53 0 -85 -36t-50 -83l-320 -825l-317 825q-18 47 -49 83t-85 36q-47 0 -79.5 -32t-32.5 -79v-995z" />
<glyph unicode="&#xe000;" horiz-adv-x="1185" d="M0 1185h1185v-1185h-1185v1185z" />
<glyph unicode="&#xfb01;" horiz-adv-x="1038" d="M41 1065q0 -41 27.5 -67.5t66.5 -26.5h76v-862q0 -45 30.5 -77t75.5 -32t77 31.5t32 77.5v862h102q39 0 67 26.5t28 67.5q0 39 -28 66.5t-67 27.5h-102v191q0 35 19.5 43t31.5 8h37q45 0 77 31.5t32 76.5t-32 76t-77 31h-37q-66 0 -115 -23.5t-82.5 -62.5t-51 -86 t-17.5 -94v-191h-76q-39 0 -66.5 -27.5t-27.5 -66.5zM729 1495q0 -49 36 -85t87 -36q49 0 85 36t36 85q0 51 -36 86t-85 35q-51 0 -87 -35t-36 -86zM743 109q0 -45 32 -77t77 -32t75.5 31.5t30.5 77.5v968q0 45 -30.5 77t-75.5 32t-77 -32t-32 -77v-968z" />
<glyph unicode="&#xfb02;" horiz-adv-x="1067" d="M41 1065q0 -41 27.5 -67.5t66.5 -26.5h76v-862q0 -45 30.5 -77t75.5 -32t77 31.5t32 77.5v862h102q39 0 67 26.5t28 67.5q0 39 -28 66.5t-67 27.5h-102v191q0 35 19.5 43t31.5 8h37q45 0 77 31.5t32 76.5t-32 76t-77 31h-37q-66 0 -115 -23.5t-82.5 -62.5t-51 -86 t-17.5 -94v-191h-76q-39 0 -66.5 -27.5t-27.5 -66.5zM758 109q0 -45 31.5 -77t76.5 -32t76 31.5t31 77.5v1400q0 45 -31 76t-76 31t-76.5 -31t-31.5 -76v-1400z" />
<glyph unicode="&#xfb03;" horiz-adv-x="1701" d="M41 1065q0 -41 27.5 -67.5t66.5 -26.5h76v-862q0 -45 30.5 -77t75.5 -32t77 31.5t32 77.5v862h102q39 0 67 26.5t28 67.5q0 39 -28 66.5t-67 27.5h-102v191q0 35 19.5 43t31.5 8h37q45 0 77 31.5t32 76.5t-32 76t-77 31h-37q-66 0 -115 -23.5t-82.5 -62.5t-51 -86 t-17.5 -94v-191h-76q-39 0 -66.5 -27.5t-27.5 -66.5zM705 1065q0 -41 27.5 -67.5t66.5 -26.5h75v-862q0 -45 31 -77t76 -32t77 31.5t32 77.5v862h102q39 0 66.5 26.5t27.5 67.5q0 39 -27.5 66.5t-66.5 27.5h-102v191q0 35 19 43t32 8h37q45 0 76.5 31.5t31.5 76.5t-31.5 76 t-76.5 31h-37q-66 0 -115 -23.5t-83 -62.5t-51.5 -86t-17.5 -94v-191h-75q-39 0 -66.5 -27.5t-27.5 -66.5zM1393 1495q0 -49 35.5 -85t87.5 -36q49 0 84.5 36t35.5 85q0 51 -35.5 86t-84.5 35q-51 0 -87 -35t-36 -86zM1407 109q0 -45 31.5 -77t77 -32t76 31.5t30.5 77.5v968 q0 45 -30.5 77t-76 32t-77 -32t-31.5 -77v-968z" />
<glyph unicode="&#xfb04;" horiz-adv-x="1730" d="M41 1065q0 -41 27.5 -67.5t66.5 -26.5h76v-862q0 -45 30.5 -77t75.5 -32t77 31.5t32 77.5v862h102q39 0 67 26.5t28 67.5q0 39 -28 66.5t-67 27.5h-102v191q0 35 19.5 43t31.5 8h37q45 0 77 31.5t32 76.5t-32 76t-77 31h-37q-66 0 -115 -23.5t-82.5 -62.5t-51 -86 t-17.5 -94v-191h-76q-39 0 -66.5 -27.5t-27.5 -66.5zM705 1065q0 -41 27.5 -67.5t66.5 -26.5h75v-862q0 -45 31 -77t76 -32t77 31.5t32 77.5v862h102q39 0 66.5 26.5t27.5 67.5q0 39 -27.5 66.5t-66.5 27.5h-102v191q0 35 19 43t32 8h37q45 0 76.5 31.5t31.5 76.5t-31.5 76 t-76.5 31h-37q-66 0 -115 -23.5t-83 -62.5t-51.5 -86t-17.5 -94v-191h-75q-39 0 -66.5 -27.5t-27.5 -66.5zM1421 109q0 -45 32 -77t77 -32t75.5 31.5t30.5 77.5v1400q0 45 -30.5 76t-75.5 31t-77 -31t-32 -76v-1400z" />
</font>
</defs>
</svg>
